[ Сегодня идет свободное скачивание без начисления Download ]


Статистика раздачи
Скачал: [ 2 ]
 
   
 
Top  
 
 
Беглецы / Скрывающиеся / Hidden Away (2013) HDTV 1080i Название: Беглецы / Скрывающиеся
Оригинальное название: Hidden Away
Год выпуска: 2013
Жанр: Триллер, драма, детектив
Выпущено: США, Hybrid, Production Media Group
Режиссер: Питер Салливан
В ролях: Эммануэль Вожье, Иван Сергей, Шон Патрик Флэнери, Элли Гонино, Элизабет Рём, Томас Калабро, Кайла Кенеди, Кэлвин Бартлетт, Кайл Джонс, Холли Херш
О фильме: Спасаясь от домашнего тирана, главная героиня вместе с дочерью инсценирует свою смерть. Спустя десять лет страхи остались в прошлом, жизнь наладилась, вместе с подросшей дочерью они счастливо живут в фешенебельном Палм-Спрингс. Но брошенный муж не верит в смерть и нанимает частного сыщика...
Качество: HDTV 1080i
Видео: MPEG-4 AVC, 7800 Кбит/с, 1920x1080
Аудио: Русский, английский (MP2, 2 ch, 192 Кбит/с)
Продолжительность: 01:24:02
Перевод: Профессиональный многоголосый

MI

General
ID : 1 (0x1)
Complete name : Beglezy.2013.HDTV.1080i.Generalfilm.ts
Format : MPEG-TS
File size : 5.15 GiB
Duration : 1h 24mn
Overall bit rate mode : Variable
Overall bit rate : 8 777 Kbps
Video
ID : 256 (0x100)
Menu ID : 1 (0x1)
Format : AVC
Format/Info : Advanced Video Codec
Format profile : [email protected]
Format settings, CABAC : Yes
Format settings, ReFrames : 3 frames
Codec ID : 27
Duration : 1h 24mn
Bit rate mode : Constant
Bit rate : 7 800 Kbps
Width : 1 920 pixels
Height : 1 080 pixels
Display aspect ratio : 16:9
Frame rate : 25.000 fps
Standard : PAL
Color space : YUV
Chroma subsampling : 4:2:0
Bit depth : 8 bits
Scan type : Progressive
Bits/(Pixel*Frame) : 0.150
Stream size : 4.56 GiB (88%)
Color range : Limited
Color primaries : BT.709
Transfer characteristics : BT.709
Matrix coefficients : BT.709
Audio #1
ID : 257 (0x101)
Menu ID : 1 (0x1)
Format : MPEG Audio
Format version : Version 1
Format profile : Layer 2
Codec ID : 3
Duration : 1h 24mn
Bit rate mode : Constant
Bit rate : 192 Kbps
Channel(s) : 2 channels
Sampling rate : 48.0 KHz
Compression mode : Lossy
Stream size : 115 MiB (2%)
Language : Russian
Audio #2
ID : 258 (0x102)
Menu ID : 1 (0x1)
Format : MPEG Audio
Format version : Version 1
Format profile : Layer 2
Codec ID : 3
Duration : 1h 24mn
Bit rate mode : Constant
Bit rate : 192 Kbps
Channel(s) : 2 channels
Sampling rate : 48.0 KHz
Compression mode : Lossy
Stream size : 115 MiB (2%)
Language : English
Audio #3
ID : 259 (0x103)
Menu ID : 1 (0x1)
Format : MPEG Audio
Format version : Version 1
Format profile : Layer 2
Codec ID : 3
Duration : 1h 24mn
Bit rate mode : Constant
Bit rate : 192 Kbps
Channel(s) : 2 channels
Sampling rate : 48.0 KHz
Compression mode : Lossy
Stream size : 115 MiB (2%)
Language : Russian

Скриншоты



[Цитировать]



Показать сообщения:    

Текущее время: 06-Дек 08:51

Часовой пояс: UTC + 3


Вы не можете начинать темы
Вы не можете отвечать на сообщения
Вы не можете редактировать свои сообщения
Вы не можете удалять свои сообщения
Вы не можете голосовать в опросах
Вы не можете прикреплять файлы к сообщениям
Вы не можете скачивать файлы

!ВНИМАНИЕ!
Сайт не предоставляет электронные версии произведений, а занимается лишь коллекционированием и каталогизацией ссылок, присылаемых и публикуемых на форуме нашими читателями. Если вы являетесь правообладателем какого-либо представленного материала и не желаете, чтобы ссылка на него находилась в нашем каталоге, свяжитесь с нами, и мы незамедлительно удалим ее. Файлы для обмена на трекере предоставлены пользователями сайта, и администрация не несет ответственности за их содержание. Просьба не заливать файлы, защищенные авторскими правами, а также файлы нелегального содержания!