[ Сегодня идет свободное скачивание без начисления Download ]


Статистика раздачи
Нет
 
   
 
Top  
 
 
-Контрудар / Counterpunch (2013) WEB-DLRip- Русское название: Контрудар
Оригинальное название: Counterpunch
Год выпуска: 2013
Производство: США / Cohencidence Productions, Digital Slave Productions, Lebrante, ToMmY K. PICTURES
Жанр: Боевик, Драма, Биография, Спорт
Перевод: Одноголосый закадровый, любительский
Субтитры: Отсутствуют-Дата мировой премьеры: 15 января 2013-Режиссер: Кеннет Кастилло
Продюсер: Электра Авеллан, Николс Коул
Актеры: Альваро Орландо, Стивен Бауэр, Дэнни Трехо, Оскар Торрес, Камила Банус, Бэйли Гарсиа, Айвон Колл, Жилон Гай, Йениффер Беренс-Описание фильма:
Фильм основан на реальной истории. Молодой боксер из Майами Эмилио (Альваро Орландо), мечтающий о победе на чемпионате мира по боксу, оказывается после поражения на распутье. Но он отчаянно борется и с помощью своего тренера (Дэнни Трехо) снова попадает в число претендентов на чемпионский титул. И лицом к лицу встречается на ринге со своим конкурентом, и он будет наносить удар за ударом до тех пор, пока его противник не рухнет на пол ринга...- -Продолжительность: 01:37:07
Качество видео: WEB-DLRip-Видеокодек: Xvid
Битрейт видео: ~808 Кбит/сек
Размер кадра: 720x304
Аудиокодек: AC3 2.0
Битрейт аудио: 192 Кбит/сек

MediaInfo

Общее
Полное имя : D:\Торрент раздача\Counterpunch.2013.L1.WEBDLRip.700MB.avi
Формат : AVI
Формат/Информация : Audio Video Interleave
Размер файла : 701 Мбайт
Продолжительность : 1 ч. 37 м.
Общий поток : 1009 Кбит/сек
Программа кодирования : VirtualDubMod 1.5.10.2 (build 2542/release)
Библиотека кодирования : VirtualDub build 32661/release
Видео
Идентификатор : 0
Формат : MPEG-4 Visual
Профиль формата : Advanced Simple@L5
Параметр BVOP формата : 2
Параметр QPel формата : Нет
Параметр GMC формата : Без точки перехода
Параметр матрицы формата : Default (H.263)
Режим смешивания : Сжатый битовый поток
Идентификатор кодека : XVID
Идентификатор кодека/Подсказка : XviD
Продолжительность : 1 ч. 37 м.
Битрейт : 808 Кбит/сек
Ширина : 720 пикселей
Высота : 304 пикселя
Соотношение сторон : 2,35:1
Частота кадров : 23,976 кадра/сек
Цветовое пространство : YUV
Субдискретизация насыщенности : 4:2:0
Битовая глубина : 8 бит
Тип развёртки : Прогрессивная
Метод сжатия : С потерями
Бит/(Пиксели*Кадры) : 0.154
Размер потока : 561 Мбайт (80%)
Библиотека кодирования : XviD 64
Аудио
Идентификатор : 1
Формат : AC-3
Формат/Информация : Audio Coding 3
Расширение режима : CM (complete main)
Параметр Endianness формата : Big
Идентификатор кодека : 2000
Продолжительность : 1 ч. 37 м.
Вид битрейта : Постоянный
Битрейт : 192 Кбит/сек
Каналы : 2 канала
Расположение каналов : Front: L R
Частота : 44,1 КГц
Битовая глубина : 16 бит
Метод сжатия : С потерями
Размер потока : 133 Мбайт (19%)
Выравнивание : Соединение по промежуткам
Продолжительность промежутка : 42 мс. (1,00 видеокадр)
Время предзагрузки промежутка : 522 мс.
Скриншоты:
Время раздачи: 24/7

[Цитировать]

Топик был перенесен из форума Новинки кинопроката в форум Боевик
Henkok



Показать сообщения:    

Текущее время: 08-Дек 19:08

Часовой пояс: UTC + 3


Вы не можете начинать темы
Вы не можете отвечать на сообщения
Вы не можете редактировать свои сообщения
Вы не можете удалять свои сообщения
Вы не можете голосовать в опросах
Вы не можете прикреплять файлы к сообщениям
Вы не можете скачивать файлы

!ВНИМАНИЕ!
Сайт не предоставляет электронные версии произведений, а занимается лишь коллекционированием и каталогизацией ссылок, присылаемых и публикуемых на форуме нашими читателями. Если вы являетесь правообладателем какого-либо представленного материала и не желаете, чтобы ссылка на него находилась в нашем каталоге, свяжитесь с нами, и мы незамедлительно удалим ее. Файлы для обмена на трекере предоставлены пользователями сайта, и администрация не несет ответственности за их содержание. Просьба не заливать файлы, защищенные авторскими правами, а также файлы нелегального содержания!