[ Сегодня идет свободное скачивание без начисления Download ]


Статистика раздачи
Нет
 
   
 
Top  
 
 
Сосед / The Neighbor Информация о фильме
Название: Сосед
Оригинальное название: The Neighbor
Год выхода: 2016
Жанр: ужасы, триллер, криминал
Режиссер: Маркус Данстэн
В ролях: Джош Стюарт Билл Ингвалл Александра Эссоу Жаклин Флеминг Люк Эдвардс Melissa Bolona Скипп Саддат Ронни Джин Блевинс Хезер Уильямс Дэвид Каллауэй
О фильме: У каждого человека есть свои скелеты в шкафу. Наркокурьер, переехав в новый дом, знакомится со своим соседом, у которого скелеты оказались не в шкафу, а подвале.

Страна: США / Fortress Features, Salt Company International, The
Продолжительность: 01:24:33
Перевод: Любительский (одноголосый закадровый) [Хихикающий доктор]
Файл
Качество: WEB-DLRip-AVC
Формат: MKV
Видео: AVC, 2700 kb/s, 1024x436
Звук: Русский, английский: AC3, 6 ch, 384 Кбит/с
Субтитры: Английские

MediaInfo:

Format : Matroska
Format version : Version 4 / Version 2
File size : 2.05 GiB
Duration : 1 h 24 min
Overall bit rate : 3 472 kb/s
Movie name : Rip by basma4i
Writing application : XviD4PSP 7.0.293 DAILY
Writing library : Lavf57.41.100 / Lavf57.41.100
Cover : Yes
Attachments : cover.jpg
ENCODING_INFO : MATROSKA,WEBM > MKV / H264 > X264 VBR-2P 2700kbps Произвольный / AC3 > AC3 CBR 384kbps / AC3 > AC3 CBR 384kbps
Video
ID : 1
Format : AVC
Format/Info : Advanced Video Codec
Format profile : [email protected]
Format settings, CABAC : Yes
Format settings, ReFrames : 12 frames
Codec ID : V_MPEG4/ISO/AVC
Duration : 1 h 24 min
Bit rate : 2 700 kb/s
Width : 1 024 pixels
Height : 436 pixels
Display aspect ratio : 2.35:1
Frame rate mode : Constant
Frame rate : 23.976 (24000/1001) FPS
Color space : YUV
Chroma subsampling : 4:2:0
Bit depth : 8 bits
Scan type : Progressive
Bits/(Pixel*Frame) : 0.252
Stream size : 1.56 GiB (76%)
Writing library : x264 core 148 r2705M 3f5ed56
Encoding settings : cabac=1 / ref=12 / deblock=1:-3:-3 / analyse=0x1:0x131 / me=umh / subme=11 / psy=1 / psy_rd=1.00:0.20 / mixed_ref=1 / me_range=32 / chroma_me=1 / trellis=2 / 8x8dct=0 / cqm=0 / deadzone=21,11 / fast_pskip=1 / chroma_qp_offset=-3 / threads=11 / lookahead_threads=1 / sliced_threads=0 / nr=0 / decimate=1 / interlaced=0 / bluray_compat=0 / constrained_intra=0 / bframes=10 / b_pyramid=2 / b_adapt=1 / b_bias=8 / direct=3 / weightb=1 / open_gop=0 / weightp=2 / keyint=230 / keyint_min=23 / scenecut=40 / intra_refresh=0 / rc_lookahead=40 / rc=2pass / mbtree=1 / bitrate=2700 / ratetol=1.0 / qcomp=0.60 / qpmin=0 / qpmax=69 / qpstep=4 / cplxblur=20.0 / qblur=0.5 / vbv_maxrate=50000 / vbv_bufsize=32150 / nal_hrd=none / filler=0 / ip_ratio=1.40 / aq=1:1.00
Default : Yes
Forced : No
Color range : Limited
Color primaries : BT.709
Transfer characteristics : BT.709
Matrix coefficients : BT.709
DURATION : 01:24:33.031000000
ENCODING_INFO : x264 - core 148 r2638 7599210 - H.264/MPEG-4 AVC codec - Copyleft 2003-2015 - http://www.videolan.org/x264.html - options: cabac=1 ref=4 deblock=1:-1:-1 analyse=0x3:0x133 me=umh subme=10 psy=1 psy_rd=1.00:0.15 mixed_ref=1 me_range=24 chroma_me=1 trellis=2 8x8dct=1 cqm=0 deadzone=21,11 fast_pskip=1 chroma_qp_offset=-3 threads=12 lookahead_threads=1 sliced_threads=0 slices=4 nr=0 decimate=1 interlaced=0 bluray_compat=0 constrained_intra=0 bframes=3 b_pyramid=1 b_adapt=2 b_bias=0 direct=3 weightb=1 open_gop=0 weightp=0 keyint=23 keyint_min=1 scenecut=40 intra_refresh=0 rc_lookahead=23 rc=crf mbtree=1 crf=18.0 qcomp=0.60 qpmin=10 qpmax=51 qpstep=4 vbv_maxrate=40000 vbv_bufsize=30000 crf_max=0.0 nal_hrd=vbr filler=0 ip_ratio=1.40 aq=1:1.00
Audio #1
ID : 2
Format : AC-3
Format/Info : Audio Coding 3
Mode extension : CM (complete main)
Format settings, Endianness : Big
Codec ID : A_AC3
Duration : 1 h 24 min
Bit rate mode : Constant
Bit rate : 384 kb/s
Channel(s) : 6 channels
Channel positions : Front: L C R, Side: L R, LFE
Sampling rate : 48.0 kHz
Frame rate : 31.250 FPS (1536 spf)
Bit depth : 32 bits
Compression mode : Lossy
Stream size : 232 MiB (11%)
Title : Xixidoktor
Language : Russian
Default : Yes
Forced : No
DURATION : 01:24:33.056000000
Audio #2
ID : 3
Format : AC-3
Format/Info : Audio Coding 3
Mode extension : CM (complete main)
Format settings, Endianness : Big
Codec ID : A_AC3
Duration : 1 h 24 min
Bit rate mode : Constant
Bit rate : 384 kb/s
Channel(s) : 6 channels
Channel positions : Front: L C R, Side: L R, LFE
Sampling rate : 48.0 kHz
Frame rate : 31.250 FPS (1536 spf)
Bit depth : 32 bits
Compression mode : Lossy
Stream size : 232 MiB (11%)
Language : English
Default : No
Forced : No
DURATION : 01:24:33.056000000

Скриншоты

[Цитировать]



Показать сообщения:    

Текущее время: 06-Дек 19:08

Часовой пояс: UTC + 3


Вы не можете начинать темы
Вы не можете отвечать на сообщения
Вы не можете редактировать свои сообщения
Вы не можете удалять свои сообщения
Вы не можете голосовать в опросах
Вы не можете прикреплять файлы к сообщениям
Вы не можете скачивать файлы

!ВНИМАНИЕ!
Сайт не предоставляет электронные версии произведений, а занимается лишь коллекционированием и каталогизацией ссылок, присылаемых и публикуемых на форуме нашими читателями. Если вы являетесь правообладателем какого-либо представленного материала и не желаете, чтобы ссылка на него находилась в нашем каталоге, свяжитесь с нами, и мы незамедлительно удалим ее. Файлы для обмена на трекере предоставлены пользователями сайта, и администрация не несет ответственности за их содержание. Просьба не заливать файлы, защищенные авторскими правами, а также файлы нелегального содержания!