[ Сегодня идет свободное скачивание без начисления Download ]


Статистика раздачи
Скачал: [ 4 ]
 
   
 
Top  
 
 
Константин Горбунов | Пошаговый Интенсив по созданию Landing Page (2016) PCRec - Автор (режиссер): Константин Горбунов
Жанр: Landing Page
Описание:
Вы уже пробовали создавать одностраничный сайт (Landing Page)?
Запустили на него рекламу в Интернет, а звонков нет или реклама не окупается?
А может вы только планируете его создать и у вас масса вопросов, как это сделать?
На Интенсиве я простым и доступным языком подробно расскажу, как пошагово сделать Landing Page.
Результаты Интенсива:
За 2 дня научитесь делать LP с конверсией до 30%
Сможете составить ТЗ для фрилансеров и нанимать специалистов
Научитесь делать сайты стоимостью 10-20-60.000 р. за 5.000 р.
Увеличите продажи в 3-5 раз.
Начнете получать заявок больше, чем у конкурентов и сами выбирать с кем работать.
Разберетесь во всех ньюансах.
Продолжительность: 15:18:13
Качество видео: PCRec
Видео: AVC/H.264, 640x360, 1280x720, ~177-851 Kbps
Аудио: AAC, 2 ch, 96-192 Kbps, VBR

Вы узнаете:

Анализ рынка, анализ конкурентов в Вашей нише.
Что делать - Landing Page или интернет-магазин?
Виды лендингов. Тренды и что работает в 2016 году
Кто Ваша целевая аудитория?
Основные элементы Landing Page/сайта
Какие элементы нужно использовать именно в Вашей нише
Контент для сайта. Копирайтинг. Что нужно для доверия?
Как сформировать уникальное торговое предложение (УТП) ?
Последовательность информации на лендинге.
Дизайн. Что влияет на конверсию?
Каким должен быть дизайн и где найти дизайнера?
Верстка. Как правильно сверстать сайт. Конструкторы сайтов.
Техническое задание - как составлять и сколько платить программистам?
Счетчики. Какие обязательно следует установить на сайт.
Ретаргетинг, ремаркетинг. Как возвращать посетителей.
А/Б тестирование страниц.
Подстановка заголовков на сайте.
Как вносить исправления, чтобы не испортить конверсию.
Секретные темы.

Mediainfo:

Общее
Полное имя                               : C:\Горбунов К. - Пошаговый Интенсив по созданию Landing Page - 2016\1 день\Часть 1.mp4
Формат                                   : MPEG-4
Профиль формата                          : Base Media / Version 2
Идентификатор кодека                     : mp42 (isom/mp42)
Размер файла                             : 478 Мбайт
Продолжительность                        : 4 ч. 2 м.
Режим общего битрейта                    : Переменный
Общий поток                              : 276 Кбит/сек
Дата кодирования                         : UTC 2016-03-12 15:31:12
Дата пометки                             : UTC 2016-03-12 15:31:12
gsst                                     : 0
gstd                                     : 14530001
Видео
Идентификатор                            : 1
Формат                                   : AVC
Формат/Информация                        : Advanced Video Codec
Профиль формата                          : Baseline@L3
Параметр CABAC формата                   : Нет
Параметр ReFrames формата                : 1 кадр
Параметр GOP формата                     : M=1, N=60
Идентификатор кодека                     : avc1
Идентификатор кодека/Информация          : Advanced Video Coding
Продолжительность                        : 4 ч. 2 м.
Битрейт                                  : 177 Кбит/сек
Максимальный битрейт                     : 1091 Кбит/сек
Ширина                                   : 640 пикселей
Высота                                   : 360 пикселей
Соотношение сторон                       : 16:9
Режим частоты кадров                     : Постоянный
Частота кадров                           : 30,000 кадров/сек
Цветовое пространство                    : YUV
Субдискретизация насыщенности            : 4:2:0
Битовая глубина                          : 8 бит
Тип развёртки                            : Прогрессивная
Бит/(Пиксели*Кадры)                      : 0.026
Размер потока                            : 307 Мбайт (64%)
Дата пометки                             : UTC 2016-03-12 15:33:21
Аудио
Идентификатор                            : 2
Формат                                   : AAC
Формат/Информация                        : Advanced Audio Codec
Профиль формата                          : LC
Идентификатор кодека                     : 40
Продолжительность                        : 4 ч. 2 м.
Вид битрейта                             : Переменный
Битрейт                                  : 96,0 Кбит/сек
Максимальный битрейт                     : 102 Кбит/сек
Каналы                                   : 2 канала
Расположение каналов                     : Front: L R
Частота                                  : 44,1 КГц
Частота кадров                           : 43,066 кадра/сек (1024 spf)
Метод сжатия                             : С потерями
Размер потока                            : 166 Мбайт (35%)
Заголовок                                : IsoMedia File Produced by Google, 5-11-2011
Дата кодирования                         : UTC 2016-03-12 15:32:14
Дата пометки                             : UTC 2016-03-12 15:33:21
Общее
Полное имя                               : C:\Горбунов К. - Пошаговый Интенсив по созданию Landing Page - 2016\2 день\Часть 1.mp4
Формат                                   : MPEG-4
Профиль формата                          : Base Media / Version 2
Идентификатор кодека                     : mp42 (isom/mp42)
Размер файла                             : 1,09 Гбайт
Продолжительность                        : 2 ч. 29 м.
Режим общего битрейта                    : Переменный
Общий поток                              : 1046 Кбит/сек
Дата кодирования                         : UTC 2016-03-13 14:16:17
Дата пометки                             : UTC 2016-03-13 14:16:17
gsst                                     : 0
gstd                                     : 8941260
Видео
Идентификатор                            : 1
Формат                                   : AVC
Формат/Информация                        : Advanced Video Codec
Профиль формата                          : [url=mailto:High@L3.1]High@L3.1[/url]
Параметр CABAC формата                   : Да
Параметр ReFrames формата                : 1 кадр
Параметр GOP формата                     : M=1, N=60
Идентификатор кодека                     : avc1
Идентификатор кодека/Информация          : Advanced Video Coding
Продолжительность                        : 2 ч. 29 м.
Битрейт                                  : 851 Кбит/сек
Максимальный битрейт                     : 3525 Кбит/сек
Ширина                                   : 1280 пикселей
Высота                                   : 720 пикселей
Соотношение сторон                       : 16:9
Режим частоты кадров                     : Постоянный
Частота кадров                           : 30,000 кадров/сек
Цветовое пространство                    : YUV
Субдискретизация насыщенности            : 4:2:0
Битовая глубина                          : 8 бит
Тип развёртки                            : Прогрессивная
Бит/(Пиксели*Кадры)                      : 0.031
Размер потока                            : 907 Мбайт (81%)
Дата пометки                             : UTC 2016-03-13 14:19:26
Аудио
Идентификатор                            : 2
Формат                                   : AAC
Формат/Информация                        : Advanced Audio Codec
Профиль формата                          : LC
Идентификатор кодека                     : 40
Продолжительность                        : 2 ч. 29 м.
Вид битрейта                             : Переменный
Битрейт                                  : 192 Кбит/сек
Максимальный битрейт                     : 201 Кбит/сек
Каналы                                   : 2 канала
Расположение каналов                     : Front: L R
Частота                                  : 44,1 КГц
Частота кадров                           : 43,066 кадра/сек (1024 spf)
Метод сжатия                             : С потерями
Размер потока                            : 205 Мбайт (18%)
Заголовок                                : IsoMedia File Produced by Google, 5-11-2011
Дата кодирования                         : UTC 2016-03-13 14:18:08
Дата пометки                             : UTC 2016-03-13 14:19:26
Скриншоты:

[Цитировать]



Показать сообщения:    

Текущее время: 11-Дек 09:09

Часовой пояс: UTC + 3


Вы не можете начинать темы
Вы не можете отвечать на сообщения
Вы не можете редактировать свои сообщения
Вы не можете удалять свои сообщения
Вы не можете голосовать в опросах
Вы не можете прикреплять файлы к сообщениям
Вы не можете скачивать файлы

!ВНИМАНИЕ!
Сайт не предоставляет электронные версии произведений, а занимается лишь коллекционированием и каталогизацией ссылок, присылаемых и публикуемых на форуме нашими читателями. Если вы являетесь правообладателем какого-либо представленного материала и не желаете, чтобы ссылка на него находилась в нашем каталоге, свяжитесь с нами, и мы незамедлительно удалим ее. Файлы для обмена на трекере предоставлены пользователями сайта, и администрация не несет ответственности за их содержание. Просьба не заливать файлы, защищенные авторскими правами, а также файлы нелегального содержания!