[ Сегодня идет свободное скачивание без начисления Download ]


Статистика раздачи
Нет
 
   
 
Top  
 
 
-Стоун / Stone (2010) [H.264] BDRip- Русское название: Стоун
Оригинальное название: Stone
Год выпуска: 2010
Жанр: Триллер, Драма, Криминал
Режиссер: Джон Керран
Актеры: Эдвард Нортон, Роберт Де Ниро, Милла Йовович, Энвер Джокай, Лайам Фергюсон, Пеппер Александер, Дон Кохран, Ламон Белл, Сараб Каму, Тевис Маркум
Описание фильма:
Жизнь тюремщика Джека превращается в сплошной кошмар. Примерный семьянин и «добрый» полицейский, он всегда помогал раскаявшимся преступникам получить освобождение. Стоун — соучастник убийства и поджога. Однако он пойдет на все, чтобы вырваться на волю, и Джек — его последний шанс. Красавица-жена Стоуна соблазняет тюремщика… Перед Джеком ужасный выбор — или разрушить всю свою жизнь и семью, или выпустить на волю маньяка. И чем больше он пытается выбраться из этой западни, тем сильнее запутывается...
Качество видео: BDRip
Продолжительность: 01:45:00
Перевод: Профессиональный (дублированный)
Оригинальная дорожка: Английская
Субтитры: Вшитые: Русские, Английские
Формат субтитров: softsub SRT

Дата мировой премьеры: 10 сентября 2010
Дата российской премьеры: 14 октября 2010, «Люксор»
Дата выхода DVD релиза: 11 ноября 2010, «Columbia/Sony»
Формат: MKV
Качество: BDRip-AVC (источник: BlueBird / Blu-ray (Custom) / 1080p)
Видео: 1088x452 (2.40:1) OAR, 23.976 fps, [email protected], 2pass, ~2050 kbps avg
Аудио: #1: 48 kHz, AC3 Dolby Digital, 3/2 (L,C,R,l,r) + LFE ch, ~448 kbps |Russian|
Аудио: #2: 48 kHz, AC3 Dolby Digital, 3/2 (L,C,R,l,r) + LFE ch, ~448 kbps |English|

MediaInfo:

General
Unique ID : 196921513765813504169532665237650309120 (0x9425B439B56B16009D7238ABC35C8000)
Complete name : J:\Стоун Stone (2010).mkv
Format : Matroska
Format version : Version 2
File size : 2.16 GiB
Duration : 1h 45mn
Overall bit rate : 2 942 Kbps
Movie name : HQCLUB | DaniLch
Encoded date : UTC 2011-01-14 16:06:08
Writing application : mkvmerge v3.3.0 ('Language') built on Mar 24 2010 14:59:24
Writing library : libebml v0.8.0 + libmatroska v0.9.0
Video
ID : 1
Format : AVC
Format/Info : Advanced Video Codec
Format profile : [email protected]
Format settings, CABAC : Yes
Format settings, ReFrames : 11 frames
Codec ID : V_MPEG4/ISO/AVC
Duration : 1h 45mn
Bit rate : 2 050 Kbps
Width : 1 088 pixels
Height : 452 pixels
Display aspect ratio : 2.40:1
Frame rate mode : Constant
Frame rate : 23.976 fps
Color space : YUV
Chroma subsampling : 4:2:0
Bit depth : 8 bits
Scan type : Progressive
Bits/(Pixel*Frame) : 0.174
Stream size : 1.46 GiB (68%)
Title : Стоун / Stone (2010)
Writing library : x264 core 98 r1649 20cbe10
Encoding settings : cabac=1 / ref=11 / deblock=1:-3:-3 / analyse=0x3:0x133 / me=umh / subme=10 / psy=1 / psy_rd=1.05:0.10 / mixed_ref=1 / me_range=24 / chroma_me=1 / trellis=2 / 8x8dct=1 / cqm=0 / deadzone=21,11 / fast_pskip=0 / chroma_qp_offset=-3 / threads=6 / sliced_threads=0 / nr=0 / decimate=1 / interlaced=0 / constrained_intra=0 / bframes=12 / b_pyramid=2 / b_adapt=2 / b_bias=0 / direct=1 / weightb=1 / weightp=2 / keyint=250 / keyint_min=25 / scenecut=40 / intra_refresh=0 / rc_lookahead=40 / rc=2pass / mbtree=0 / bitrate=2050 / ratetol=1.0 / qcomp=0.60 / qpmin=10 / qpmax=51 / qpstep=4 / cplxblur=20.0 / qblur=0.5 / vbv_maxrate=16500 / vbv_bufsize=16000 / ip_ratio=1.40 / pb_ratio=1.30 / aq=1:0.80 / nal_hrd=none
Language : English
Default : Yes
Forced : No
Audio #1
ID : 2
Format : AC-3
Format/Info : Audio Coding 3
Mode extension : CM (complete main)
Format settings, Endianness : Big
Codec ID : A_AC3
Duration : 1h 45mn
Bit rate mode : Constant
Bit rate : 448 Kbps
Channel(s) : 6 channels
Channel positions : Front: L C R, Side: L R, LFE
Sampling rate : 48.0 KHz
Bit depth : 16 bits
Compression mode : Lossy
Stream size : 336 MiB (15%)
Title : AC3 5.1 @ 448 kbps - Дубляж
Language : Russian
Default : Yes
Forced : No
Audio #2
ID : 3
Format : AC-3
Format/Info : Audio Coding 3
Mode extension : CM (complete main)
Format settings, Endianness : Big
Codec ID : A_AC3
Duration : 1h 45mn
Bit rate mode : Constant
Bit rate : 448 Kbps
Channel(s) : 6 channels
Channel positions : Front: L C R, Side: L R, LFE
Sampling rate : 48.0 KHz
Bit depth : 16 bits
Compression mode : Lossy
Stream size : 336 MiB (15%)
Title : AC3 5.1 @ 448 kbps
Language : English
Default : No
Forced : No
Text #1
ID : 4
Format : UTF-8
Codec ID : S_TEXT/UTF8
Codec ID/Info : UTF-8 Plain Text
Language : Russian
Default : No
Forced : No
Text #2
ID : 5
Format : UTF-8
Codec ID : S_TEXT/UTF8
Codec ID/Info : UTF-8 Plain Text
Language : English
Default : No
Forced : No
Скриншоты: Время раздачи: С 23:00 до 8:30 (24/7 - круглосуточно)

[Цитировать]



Показать сообщения:    

Текущее время: 06-Дек 13:19

Часовой пояс: UTC + 3


Вы не можете начинать темы
Вы не можете отвечать на сообщения
Вы не можете редактировать свои сообщения
Вы не можете удалять свои сообщения
Вы не можете голосовать в опросах
Вы не можете прикреплять файлы к сообщениям
Вы не можете скачивать файлы

!ВНИМАНИЕ!
Сайт не предоставляет электронные версии произведений, а занимается лишь коллекционированием и каталогизацией ссылок, присылаемых и публикуемых на форуме нашими читателями. Если вы являетесь правообладателем какого-либо представленного материала и не желаете, чтобы ссылка на него находилась в нашем каталоге, свяжитесь с нами, и мы незамедлительно удалим ее. Файлы для обмена на трекере предоставлены пользователями сайта, и администрация не несет ответственности за их содержание. Просьба не заливать файлы, защищенные авторскими правами, а также файлы нелегального содержания!