[ Today is free to download without increasing Download ]

DL-List and Torrent activity
Complete: [ 5 ]
Всё о мужчинах (2016) Информация о фильме
Название: Всё о мужчинах
Год выхода: 2016
Жанр: Комедия
Режиссер: Михаил Жерневский, Леонид Марголин
В ролях: Дмитрий Нагиев, Анна Хилькевич, Игорь Верник, Сергей Белоголовцев, Грант Тохатян, Владимир Епифанцев, Екатерина Скулкина, Елена Борщева, Виктор Степанян, Ян Цапник
О фильме:
Это история о том, какими разными могут быть мужчины. О том, что мужчины — это, в первую очередь, сложные решения и настоящие поступки. О том, в чем мужчины могут быть сильны, а в чем комичны. О том, за что их можно и нужно любить...
Страна: Россия
Студия: Enjoy Movies, Fresh Film
Продолжительность: 01:18:52
Перевод: Не требуется [KartinaTV]
Кодек: h.264
Качество: WEB-DL 1080p
Видео: MPEG-4 AVC, 3363 Кбит/с, 1920x1080, 24.000 кадр/с
Звук: Русский (AAC, 2 ch, 125 Кбит/с)

О релизе

Автор релиза - Silverok, первоисточник - KartinaTV


Unique ID : 218986795834211877953080608668955365005 (0xA4BF529FE44030B593806FAE574ACE8D)
Complete name : D:uTorrentVsje.o.muzhcinah.2016.WEB-DL.1080p.MediaClub.mkv
Format : Matroska
Format version : Version 4 / Version 2
File size : 1.92 GiB
Duration : 1 h 18 min
Overall bit rate : 3 490 kb/s
Encoded date : UTC 2016-09-20 15:02:53
Writing application : mkvmerge v9.4.2 ('So High') 64bit
Writing library : libebml v1.3.4 + libmatroska v1.4.5
ID : 1
Format : AVC
Format/Info : Advanced Video Codec
Format profile : High@L4
Format settings, CABAC : Yes
Format settings, ReFrames : 3 frames
Duration : 1 h 18 min
Bit rate : 3 363 kb/s
Width : 1 920 pixels
Height : 1 080 pixels
Display aspect ratio : 16:9
Frame rate mode : Constant
Frame rate : 24.000 FPS
Color space : YUV
Chroma subsampling : 4:2:0
Bit depth : 8 bits
Scan type : Progressive
Bits/(Pixel*Frame) : 0.068
Stream size : 1.85 GiB (96%)
Language : Russian
Default : Yes
Forced : No
ID : 2
Format : AAC
Format/Info : Advanced Audio Codec
Format profile : LC
Codec ID : A_AAC
Duration : 1 h 18 min
Bit rate : 125 kb/s
Channel(s) : 2 channels
Channel positions : Front: L R
Sampling rate : 48.0 kHz
Frame rate : 46.875 FPS (1024 spf)
Compression mode : Lossy
Stream size : 70.7 MiB (4%)
Language : Russian
Default : Yes
Forced : No



Display posts:    

Current time is: 25-Oct 20:26

All times are UTC + 3

You cannot post new topics in this forum
You cannot reply to topics in this forum
You cannot edit your posts in this forum
You cannot delete your posts in this forum
You cannot vote in polls in this forum
You cannot attach files in this forum
You cannot download files in this forum

The site does not give electronic versions of products, and is engaged only in a collecting and cataloguing of the references sent and published at a forum by our readers. If you are the legal owner of any submitted material and do not wish that the reference to it was in our catalogue, contact us and we shall immediately remove her. Files for an exchange on tracker are given by users of a site, and the administration does not bear the responsibility for their maintenance. The request to not fill in the files protected by copyrights, and also files of the illegal maintenance!