[ Сегодня идет свободное скачивание без начисления Download ]


Статистика раздачи
Скачал: [ 1 ]
 
   
 
Top  
 
 
Росомаха: Бессмертный / The Wolverine (2013) BDRip [H.264/720p]
« When he's most vulnerable, he's most dangerous »
- Производство: США, Великобритания, Австралия, Япония / 20th Century Fox Film Corporation, Big Screen Productions, Donners' Company, Dune Entertainment, Ingenious Film Partners, Ingenious Media, Marvel Entertainment, Seed Productions
Жанр: Фантастика, Боевик, Триллер, Приключения
Режиссер: Джеймс Мэнголд
Актеры: Хью Джекман, Тао Окамото, Рила Фукусима, Светлана Ходченкова, Уилл Юн Ли, Харукико Яманоути, Хироюки Санада, Брайан Ти, Кен Ямамура, Фамке Янссен, Нобутака Аояги, Сейдзи Фунамото, Синдзи Икефуджи, Киоко Саито, Нубаки Какуда, Чихару Мидзуно, Такао Киносита, Конрад Колеби, Тарис Тайлер, Аллан Попплтон
Описание: Новая глава приключений Росомахи развернётся в Японии, где Логану предстоит выяснить, что острее - когти Росомахи или меч Серебряного Самурая.

Возраст: 12+ (зрителям, достигшим 12 лет)
Рейтинг MPAA: PG-13 (детям до 13 лет просмотр нежелателен)
Продолжительность: 02:18:05
Качество видео: BDRip СЭМПЛ
Перевод: Дублированный, Авторский (одноголосый закадровый)
Вид субтитров: Вшитые, отключаемые
Язык субтитров: Русский, Английский
Видео: AVC/H.264, 7310 Kbps, 1280x532
Аудио 1: DTS 5.1, 768 Kbps, 48.0 KHz - Русский (DUB, Blu-ray CEE)
Аудио 2: DTS 5.1, 1509 Kbps, 48.0 KHz - Русский (AVO, В. Белов)
Аудио 3: DTS 5.1, 1509 Kbps, 48.0 KHz - Русский (AVO, Д. Есарев)
Аудио 4: DTS 5.1, 1509 Kbps, 48.0 KHz - Русский (AVO, А. Матвеев)
Аудио 5: DTS 5.1, 1509 Kbps, 48.0 KHz - Русский (AVO, Ю. Немахов)
Аудио 6: DTS 5.1, 1509 Kbps, 48.0 KHz - Русский (AVO, Л. Володарский)
Аудио 7: DTS 5.1, 1509 Kbps, 48.0 KHz - Русский (AVO, А. Дольский)
Аудио 8: DTS 5.1, 1509 Kbps, 48.0 KHz - Русский (AVO, Ю. Живов)
Аудио 9: DTS 5.1, 1509 Kbps, 48.0 KHz - Английский (Оригинал)

MediaInfo

Общее
Полное имя                               : Росомаха. Бессмертный.mkv
Формат                                   : Matroska
Версия формата                           : Version 1
Размер файла                             : 19,9 Гбайт
Продолжительность                        : 2 ч. 18 м.
Общий поток                              : 20,6 Мбит/сек
Дата кодирования                         : UTC 2016-09-20 09:38:33
Программа кодирования                    : mkvmerge v2.4.1 ('Use Me') built on Dec  5 2008 18:30:05
Библиотека кодирования                   : libebml v0.7.7 + libmatroska v0.8.1
Видео
Идентификатор                            : 1
Формат                                   : AVC
Формат/Информация                        : Advanced Video Codec
Профиль формата                          : [url=mailto:High@L4.1]High@L4.1[/url]
Параметр CABAC формата                   : Да
Параметр ReFrames формата                : 10 кадров
Идентификатор кодека                     : V_MPEG4/ISO/AVC
Продолжительность                        : 2 ч. 18 м.
Битрейт                                  : 7310 Кбит/сек
Ширина                                   : 1280 пикселей
Высота                                   : 532 пикселя
Соотношение сторон                       : 2,40:1
Режим частоты кадров                     : Постоянный
Частота кадров                           : 23,976 (24000/1001) кадра/сек
Цветовое пространство                    : YUV
Субдискретизация насыщенности            : 4:2:0
Битовая глубина                          : 8 бит
Тип развёртки                            : Прогрессивная
Бит/(Пиксели*Кадры)                      : 0.448
Размер потока                            : 7,06 Гбайт (36%)
Заголовок                                : Росомаха: Бессмертный (2013)
Библиотека кодирования                   : x264 core 138 r2358kMod 9e941d1
Настройки программы                      : cabac=1 / ref=10 / deblock=1:-3:-3 / analyse=0x3:0x113 / me=esa / subme=10 / psy=1 / fade_compensate=0.00 / psy_rd=1.05:0.00 / mixed_ref=1 / me_range=32 / chroma_me=1 / trellis=2 / 8x8dct=1 / cqm=0 / deadzone=21,11 / fast_pskip=0 / chroma_qp_offset=-2 / threads=6 / lookahead_threads=1 / sliced_threads=0 / nr=0 / decimate=0 / interlaced=0 / bluray_compat=0 / constrained_intra=0 / bframes=8 / b_pyramid=2 / b_adapt=2 / b_bias=0 / direct=3 / weightb=1 / open_gop=0 / weightp=2 / keyint=250 / keyint_min=23 / scenecut=40 / intra_refresh=0 / rc_lookahead=80 / rc=crf / mbtree=0 / crf=15.0000 / qcomp=0.70 / qpmin=0 / qpmax=30 / qpstep=4 / vbv_maxrate=20000 / vbv_bufsize=15000 / crf_max=0.0 / nal_hrd=none / ip_ratio=1.20 / pb_ratio=1.10 / aq=1:0.90
Язык                                     : English
Default                                  : Да
Forced                                   : Нет
Аудио #1
Идентификатор                            : 2
Формат                                   : DTS
Формат/Информация                        : Digital Theater Systems
Режим                                    : 16
Параметр Endianness формата              : Big
Идентификатор кодека                     : A_DTS
Продолжительность                        : 2 ч. 18 м.
Вид битрейта                             : Постоянный
Битрейт                                  : 768 Кбит/сек
Каналы                                   : 6 каналов
Расположение каналов                     : Front: L C R, Side: L R, LFE
Частота                                  : 48,0 КГц
Частота кадров                           : 93,750 кадра/сек (512 spf)
Битовая глубина                          : 24 бит
Метод сжатия                             : С потерями
Размер потока                            : 759 Мбайт (4%)
Заголовок                                : DTS (Дублированный) Blu-ray CEE
Язык                                     : Russian
Default                                  : Да
Forced                                   : Нет
Аудио #2
Идентификатор                            : 3
Формат                                   : DTS
Формат/Информация                        : Digital Theater Systems
Режим                                    : 16
Параметр Endianness формата              : Big
Идентификатор кодека                     : A_DTS
Продолжительность                        : 2 ч. 18 м.
Вид битрейта                             : Постоянный
Битрейт                                  : 1509 Кбит/сек
Каналы                                   : 6 каналов
Расположение каналов                     : Front: L C R, Side: L R, LFE
Частота                                  : 48,0 КГц
Частота кадров                           : 93,750 кадра/сек (512 spf)
Битовая глубина                          : 24 бит
Метод сжатия                             : С потерями
Размер потока                            : 1,46 Гбайт (7%)
Заголовок                                : DTS (Одноголосый) В. Белов
Язык                                     : Russian
Default                                  : Нет
Forced                                   : Нет
Аудио #3
Идентификатор                            : 4
Формат                                   : DTS
Формат/Информация                        : Digital Theater Systems
Режим                                    : 16
Параметр Endianness формата              : Big
Идентификатор кодека                     : A_DTS
Продолжительность                        : 2 ч. 18 м.
Вид битрейта                             : Постоянный
Битрейт                                  : 1509 Кбит/сек
Каналы                                   : 6 каналов
Расположение каналов                     : Front: L C R, Side: L R, LFE
Частота                                  : 48,0 КГц
Частота кадров                           : 93,750 кадра/сек (512 spf)
Битовая глубина                          : 24 бит
Метод сжатия                             : С потерями
Размер потока                            : 1,46 Гбайт (7%)
Заголовок                                : DTS (Одноголосый) Д. Есарев
Язык                                     : Russian
Default                                  : Нет
Forced                                   : Нет
Аудио #4
Идентификатор                            : 5
Формат                                   : DTS
Формат/Информация                        : Digital Theater Systems
Профиль формата                          : ES Matrix / Core
Режим                                    : 16
Параметр Endianness формата              : Big
Идентификатор кодека                     : A_DTS
Продолжительность                        : 2 ч. 18 м.
Вид битрейта                             : Постоянный
Битрейт                                  : 1509 Кбит/сек
Каналы                                   : 7 каналов / 6 каналов
Расположение каналов                     : Front: L C R, Side: L R, Back: C, LFE / Front: L C R, Side: L R, LFE
Частота                                  : 48,0 КГц
Частота кадров                           : 93,750 кадра/сек (512 spf)
Битовая глубина                          : 24 бит
Метод сжатия                             : С потерями
Размер потока                            : 1,46 Гбайт (7%)
Заголовок                                : DTS (Одноголосый) А. Матвеев
Язык                                     : Russian
Default                                  : Нет
Forced                                   : Нет
Аудио #5
Идентификатор                            : 6
Формат                                   : DTS
Формат/Информация                        : Digital Theater Systems
Профиль формата                          : ES Matrix / Core
Режим                                    : 16
Параметр Endianness формата              : Big
Идентификатор кодека                     : A_DTS
Продолжительность                        : 2 ч. 18 м.
Вид битрейта                             : Постоянный
Битрейт                                  : 1509 Кбит/сек
Каналы                                   : 7 каналов / 6 каналов
Расположение каналов                     : Front: L C R, Side: L R, Back: C, LFE / Front: L C R, Side: L R, LFE
Частота                                  : 48,0 КГц
Частота кадров                           : 93,750 кадра/сек (512 spf)
Битовая глубина                          : 24 бит
Метод сжатия                             : С потерями
Размер потока                            : 1,46 Гбайт (7%)
Заголовок                                : DTS (Одноголосый) Ю. Немахов
Язык                                     : Russian
Default                                  : Нет
Forced                                   : Нет
Аудио #6
Идентификатор                            : 7
Формат                                   : DTS
Формат/Информация                        : Digital Theater Systems
Режим                                    : 16
Параметр Endianness формата              : Big
Идентификатор кодека                     : A_DTS
Продолжительность                        : 2 ч. 18 м.
Вид битрейта                             : Постоянный
Битрейт                                  : 1509 Кбит/сек
Каналы                                   : 6 каналов
Расположение каналов                     : Front: L C R, Side: L R, LFE
Частота                                  : 48,0 КГц
Частота кадров                           : 93,750 кадра/сек (512 spf)
Битовая глубина                          : 24 бит
Метод сжатия                             : С потерями
Размер потока                            : 1,46 Гбайт (7%)
Заголовок                                : DTS (Одноголосый) Л. Володарский
Язык                                     : Russian
Default                                  : Нет
Forced                                   : Нет
Аудио #7
Идентификатор                            : 8
Формат                                   : DTS
Формат/Информация                        : Digital Theater Systems
Профиль формата                          : ES Matrix / Core
Режим                                    : 16
Параметр Endianness формата              : Big
Идентификатор кодека                     : A_DTS
Продолжительность                        : 2 ч. 18 м.
Вид битрейта                             : Постоянный
Битрейт                                  : 1509 Кбит/сек
Каналы                                   : 7 каналов / 6 каналов
Расположение каналов                     : Front: L C R, Side: L R, Back: C, LFE / Front: L C R, Side: L R, LFE
Частота                                  : 48,0 КГц
Частота кадров                           : 93,750 кадра/сек (512 spf)
Битовая глубина                          : 24 бит
Метод сжатия                             : С потерями
Размер потока                            : 1,46 Гбайт (7%)
Заголовок                                : DTS (Одноголосый) А. Дольский
Язык                                     : Russian
Default                                  : Нет
Forced                                   : Нет
Аудио #8
Идентификатор                            : 9
Формат                                   : DTS
Формат/Информация                        : Digital Theater Systems
Профиль формата                          : ES Matrix / Core
Режим                                    : 16
Параметр Endianness формата              : Big
Идентификатор кодека                     : A_DTS
Продолжительность                        : 2 ч. 18 м.
Вид битрейта                             : Постоянный
Битрейт                                  : 1509 Кбит/сек
Каналы                                   : 7 каналов / 6 каналов
Расположение каналов                     : Front: L C R, Side: L R, Back: C, LFE / Front: L C R, Side: L R, LFE
Частота                                  : 48,0 КГц
Частота кадров                           : 93,750 кадра/сек (512 spf)
Битовая глубина                          : 24 бит
Метод сжатия                             : С потерями
Размер потока                            : 1,46 Гбайт (7%)
Заголовок                                : DTS (Одноголосый) Ю. Живов
Язык                                     : Russian
Default                                  : Нет
Forced                                   : Нет
Аудио #9
Идентификатор                            : 10
Формат                                   : DTS
Формат/Информация                        : Digital Theater Systems
Профиль формата                          : ES Matrix / Core
Режим                                    : 16
Параметр Endianness формата              : Big
Идентификатор кодека                     : A_DTS
Продолжительность                        : 2 ч. 18 м.
Вид битрейта                             : Постоянный
Битрейт                                  : 1509 Кбит/сек
Каналы                                   : 7 каналов / 6 каналов
Расположение каналов                     : Front: L C R, Side: L R, Back: C, LFE / Front: L C R, Side: L R, LFE
Частота                                  : 48,0 КГц
Частота кадров                           : 93,750 кадра/сек (512 spf)
Битовая глубина                          : 24 бит
Метод сжатия                             : С потерями
Размер потока                            : 1,46 Гбайт (7%)
Заголовок                                : DTS (Оригинал)
Язык                                     : English
Default                                  : Нет
Forced                                   : Нет
Текст #1
Идентификатор                            : 11
Формат                                   : UTF-8
Идентификатор кодека                     : S_TEXT/UTF8
Идентификатор кодека/Информация          : UTF-8 Plain Text
Заголовок                                : Русские
Язык                                     : Russian
Default                                  : Нет
Forced                                   : Нет
Текст #2
Идентификатор                            : 12
Формат                                   : UTF-8
Идентификатор кодека                     : S_TEXT/UTF8
Идентификатор кодека/Информация          : UTF-8 Plain Text
Заголовок                                : Английские
Язык                                     : English
Default                                  : Нет
Forced                                   : Нет

Дополнительная информация

» Того Игава рассматривался на роль Сингена.
» Это первый раз, когда Росомаха появляется в фильме, в названии которого не фигурируют Люди Икс.
» Оператор Росс Эмери использовал при создании фильма цифровую камеру Arri Alexa с анаморфным объективом, что позволило достичь максимальной гибкости и кинематографической четкости.
» Хью Джекман уже шесть раз перевоплощался в Логана на экране. Это рекорд для одного актера, исполняющего роль героя комиксов.
» Во время подготовки к своей роли Хью Джекман тесно сотрудничал с известной группой каскадеров 87Eleven, оттачивая разнообразные приемы ниндзюцу и других японских боевых искусств.
» Съемки длились всего 80 дней и проходили в Японии и на студии компании Fox в Сиднее, Австралия.
» Одной из самых сложных декораций фильма была Ледяная деревня, которую художник тщательно воссоздал в пригороде Сиднея, основываясь на своих впечатлениях от посещения трех горных деревушек в японской префектуре Нагано.
» Хотя у Логана всего около пяти костюмов, для Джекмана пришлось изготовить почти сотню отдельных элементов одежды, учитывая его многочисленные непростые приключения, в которые его одежда вместе с ним попадала.
» Продюсер Лорен Шулер Доннер предлагала написать сценарий Саймону Бофою, но тот не был достаточно уверен в своих силах, чтобы согласиться на участие в проекте.
» Хью Джекман является поклонником комикса Криса Клэрмонта и Фрэнка Миллера «Росомаха» (1982), особенно японской саги. «Мне нравится идея такого анархичного персонажа, отступника, который находится в мире, полном чести, традиций и обычаев. Он тот, кто действительно против всего этого и пытается все делать по-своему. Идея самураев и традиции там — это просто великолепно. В комиксе моему персонажу неплохо достается от пары самураев, которые даже не являются мутантами».
» Первоначально режиссером фильма должен был стать Даррен Аронофски, он даже работал над проектом около полугода, но потом отказался, сославшись на то, что длительные заграничные съемки не дают ему видеться со своей семьей (на тот момент он только разошелся с Рэйчел Вайс, матерью его ребенка). За время своего участия в проекте он переписал сценарий Кристофера МакКуорри, и, возможно, истинной причиной его ухода из проекта послужило нежелание студии утвердить его версию сценария, которая бы получила рейтинг R из-за сцен сексуального содержания и жестокого насилия.
» Джессике Бил была предложена роль, которая в итоге досталась Светлане Ходченковой.
» Гильермо дель Торо, будучи поклонником японской саги из комиксов о Росомахе, выражал свою заинтересованность в должности режиссера этого фильма. Он встречался с Джеймсом Джианопулосом (James Gianopulos) и Хью Джекманом, чтобы обсудить режиссуру фильма, но в конечном итоге решил, что не хочет тратить два-три года своей жизни на работу над этим фильмом.
» В мае 2011 года у студии Fox был список из восьми кандидатов на место режиссера: Жозе Падилья, Даг Лайман, Антуан Фукуа, Марк Романек, Джастин Лин, Гэвин О`Коннор, Гари Шор и Джеймс Мэнголд. В итоге режиссером был выбран Мэнголд.
» Для подготовки к своей роли Хью Джекман связался с Дуэйном Джонсоном, чтобы посоветоваться, как набрать мышечную массу. Джонсон сказал Джекману, что тот сможет набирать по фунту в неделю на протяжении шести месяцев при употреблении в пищу 6000 калорий в день (очень много курицы, стейки и коричневый рис).
» Хью Джекман подтвердил, что он обсуждал с режиссером Джеймсом Мэнголдом скрининг-тест версии с рейтингом «PG-13» и c рейтингом «R», но не стал комментировать съемки различных сцен для этих версий. И, хотя было объявлено, что в прокат выйдет версия «PG-13», в своем твиттере Джеймс Мэнголд написал: «Это «PG-13». Но не бойтесь, это не «Бэмби»».
» Оператор Амир М. Мокри был заменен во время съемок на оператора второй съемочной группы Росса Эмери.
» Джеймс Мэнголд рассказал, что при создании фильма сильное влияние на него оказали японские фильмы про самураев вроде «13 убийц» (2010) и трилогии Хироси Инагаки про самурая. Также повлияли вестерны «Шэйн» (1953) и «Джоси Уэйлс — человек вне закона» (1976), криминальные фильмы «Французский связной» (1971) и «Китайский квартал» (1974), драмы «Черный нарцисс» (1947), «Плавучие травы» (1959), «Чунгкингский экспресс» (1994) и «Счастливы вместе» (1997).
» Хью Джекман сказал, что в этом фильме он наконец-то достиг того телосложения, которое, судя по его представлениям, должен иметь Росомаха. Он сказал, что по некоторым причинам во все предыдущие пять раз, когда он исполнял роль этого персонажа, у него не было достаточно времени, чтобы набрать нужную форму, но в этом фильме ему это все же удалось. Актер Уилл Юн Ли также отметил, что в этом фильме Джекман набрал лучшую физическую форму из всех фильмов о Росомахе.
» По словам Хью Джекмана, главной темой в фильме является Росомаха в окружении смерти, который при этом не может умереть из-за своей исцеляющей способности: «Он осознает, что все, кого он любит, умирают, что вся его жизнь полна боли. Так что для него лучше просто убежать. Он не может умереть и просто хочет убежать от всего».
» Первый фильм из серии «Люди Икс», выпущенный в 3D и IMAX.
» Хью Джекман рассказал, что для сцен топлес он хотел выглядеть максимально рельефным. Для этого он соблюдал обезвоживающую диету (такая используется в бодибилдинге), в соответствии с которой он не пил никакие жидкости в течение 36 часов до съемок. Из-за этого он испытывал головную боль и слабость, но был доволен результатами. Обезвоживание сильно подчеркнуло рельеф его мышц и кровеносных сосудов, чего он и хотел добиться.
» Подзаголовок «Бессмертный» фильм имеет в России, Аргентине, Бразилии, Чили, Испании и Италии. Во Франции у фильма подзаголовок «Битва бессмертного», в Японии — «Самурай», в Германии — «Путь воина».
» Полная версия фильма (с рейтингом R) идёт 138 минут.
» Механический костюм Серебряного самурая разрабатывался с нуля. В течение пяти месяцев в Сиднее его создавала команда специалистов. Этот костюм включает свыше 600 деталей, каждая из которых отдельно разработана и смоделирована на компьютере.
» По словам Джеймса Мэнголда, этот фильм является сиквелом к фильму «Люди Икс: Последняя битва» («Джин Грей больше нет, и большинство Людей Икс расформированы, поэтому появляется ощущение изоляции Росомахи»), но с большим количеством различных воспоминаний.
По словам Джеймса Мэнголда, первоначально он хотел снять приквел к фильму «Люди Икс» (2000), но позже все же решил сделать сиквел к ленте «Люди Икс: Последняя битва» (2006): «Я хотел рассказать историю, которую не нужно будет делать переходящей в уже существующий фильм и подгонять соответственно ему. Идея бессмертия имеет очень большое значение в этой истории, и это бремя сильно давит на Логана. Для меня это очень интересная часть характера Логана, которую практически невозможно раскрыть в приквеле».
» Все сцены эпизодической роли Фамке Янссен (персонаж Джин Грей) были отсняты за три дня.
» Эпизодические роли Магнето и профессора Икс в этом фильме очень напоминают схожее появление Росомахи в фильме «Люди Икс: Первый класс» (2011).
» Серебряный самурай в этом фильме является сочетанием Кенутио Харады (опытного самурая с тахионовым клинком) и Сина Харады (который обладал технологически продвинутыми доспехами).
» Одним из главных злодеев фильма является Серебряный самурай. В игре «X-Men the Official Game» он погиб в битве с Росомахой. Игра была приквелом к третьей части фильма.
Скриншоты:

[Цитировать]



Показать сообщения:    

Текущее время: 08-Дек 17:10

Часовой пояс: UTC + 3


Вы не можете начинать темы
Вы не можете отвечать на сообщения
Вы не можете редактировать свои сообщения
Вы не можете удалять свои сообщения
Вы не можете голосовать в опросах
Вы не можете прикреплять файлы к сообщениям
Вы не можете скачивать файлы

!ВНИМАНИЕ!
Сайт не предоставляет электронные версии произведений, а занимается лишь коллекционированием и каталогизацией ссылок, присылаемых и публикуемых на форуме нашими читателями. Если вы являетесь правообладателем какого-либо представленного материала и не желаете, чтобы ссылка на него находилась в нашем каталоге, свяжитесь с нами, и мы незамедлительно удалим ее. Файлы для обмена на трекере предоставлены пользователями сайта, и администрация не несет ответственности за их содержание. Просьба не заливать файлы, защищенные авторскими правами, а также файлы нелегального содержания!