[ Сегодня идет свободное скачивание без начисления Download ]


Статистика раздачи
Скачал: [ 2 ]
 
   
 
Top  
 
 
Транссибирский экспресс (1977) SATRip-AVC Информация о фильме
Название: Транссибирский экспресс
Год выхода: 1977
Жанр: Боевик, приключения
Режиссер: Эльдор Уразбаев
В ролях: Асанали Ашимов, Нонна Терентьева, Олег Табаков, Константин Григорьев, Нина Алисова, Наталья Аринбасарова, Олег Видов, Олег Ли, Артем Карапетян и др.
О фильме:
1927 год. Дальний Восток. С провокационной целью убита дочь крупного японского промышленника Сайто, собирающегося начать торговые переговоры с Советской Россией. Несмотря на горечь утраты, Сайто не отступает от намеченных действий. Сев в транссибирский экспресс, он отравляется в Москву. А тем временем агенты иностранной разведки готовят на него покушение…

Страна: СССР
Студия: Казахфильм
Продолжительность: 01:25:33
Перевод: не требуется
Файл
Качество: SATRip (AVC)
Видео: MPEG-4 AVC, 2012 Кбит/с, 670x554@716x554
Аудио: AC3, 2 ch, 192 Кбит/с

MI

General
Unique ID : 192184314934733865727753224063381946311 (0x90955A4A610D24D993002E3002C43FC7)
Complete name : E:Trans.ekspress.1977.SATRip.AVC.ExKinoRay.mkv
Format : Matroska
Format version : Version 2
File size : 1.35 GiB
Duration : 1 h 27 min
Overall bit rate : 2 206 kb/s
Movie name : Транссибирский экспресс 1977 from ExKinoRay
Encoded date : UTC 2016-09-20 00:43:24
Writing application : mkvmerge v7.6.0 ('Garden of Dreams') 32bit built on Feb 11 2015 00:18:47
Writing library : libebml v1.3.1 + libmatroska v1.4.2
Video
ID : 1
Format : AVC
Format/Info : Advanced Video Codec
Format profile : High@L4.1
Format settings, CABAC : Yes
Format settings, ReFrames : 15 frames
Codec ID : V_MPEG4/ISO/AVC
Duration : 1 h 27 min
Bit rate : 2 012 kb/s
Width : 670 pixels
Height : 554 pixels
Display aspect ratio : 1.289
Original display aspect rat : 1.290
Frame rate mode : Constant
Frame rate : 25.000 FPS
Color space : YUV
Chroma subsampling : 4:2:0
Bit depth : 8 bits
Scan type : Progressive
Bits/(Pixel*Frame) : 0.217
Stream size : 1.20 GiB (89%)
Title : Enigma
Writing library : x264 core 144 r2525 40bb568
Encoding settings : cabac=1 / ref=15 / deblock=1:-2:-2 / analyse=0x3:0x113 / me=umh / subme=10 / psy=1 / psy_rd=1.05:0.12 / mixed_ref=1 / me_range=32 / chroma_me=1 / trellis=2 / 8x8dct=1 / cqm=0 / deadzone=21,11 / fast_pskip=0 / chroma_qp_offset=-3 / threads=12 / lookahead_threads=3 / sliced_threads=0 / nr=0 / decimate=0 / interlaced=0 / bluray_compat=0 / constrained_intra=0 / bframes=11 / b_pyramid=2 / b_adapt=2 / b_bias=0 / direct=3 / weightb=1 / open_gop=0 / weightp=2 / keyint=250 / keyint_min=25 / scenecut=40 / intra_refresh=0 / rc=2pass / mbtree=0 / bitrate=2012 / ratetol=1.0 / qcomp=0.60 / qpmin=0 / qpmax=51 / qpstep=4 / cplxblur=20.0 / qblur=0.5 / ip_ratio=1.40 / pb_ratio=1.30 / aq=1:0.80
Language : English
Default : Yes
Forced : No
Color range : Limited
Color primaries : BT.601 PAL
Transfer characteristics : BT.470 System B, BT.470 System G
Matrix coefficients : BT.601
Audio
ID : 2
Format : AC-3
Format/Info : Audio Coding 3
Mode extension : CM (complete main)
Format settings, Endianness : Big
Codec ID : A_AC3
Duration : 1 h 27 min
Bit rate mode : Constant
Bit rate : 192 kb/s
Channel(s) : 2 channels
Channel positions : Front: L R
Sampling rate : 48.0 kHz
Frame rate : 31.250 FPS (1536 spf)
Compression mode : Lossy
Stream size : 120 MiB (9%)
Language : Russian
Default : Yes
Forced : No

Скриншоты

[Цитировать]



Показать сообщения:    

Текущее время: 25-Фев 01:13

Часовой пояс: UTC + 3


Вы не можете начинать темы
Вы не можете отвечать на сообщения
Вы не можете редактировать свои сообщения
Вы не можете удалять свои сообщения
Вы не можете голосовать в опросах
Вы не можете прикреплять файлы к сообщениям
Вы не можете скачивать файлы

!ВНИМАНИЕ!
Сайт не предоставляет электронные версии произведений, а занимается лишь коллекционированием и каталогизацией ссылок, присылаемых и публикуемых на форуме нашими читателями. Если вы являетесь правообладателем какого-либо представленного материала и не желаете, чтобы ссылка на него находилась в нашем каталоге, свяжитесь с нами, и мы незамедлительно удалим ее. Файлы для обмена на трекере предоставлены пользователями сайта, и администрация не несет ответственности за их содержание. Просьба не заливать файлы, защищенные авторскими правами, а также файлы нелегального содержания!