[ Сегодня идет свободное скачивание без начисления Download ]


Статистика раздачи
Нет
 
   
 
Top  
 
 
Ледокол (2016) WEBRip - Производство: Россия / Профит
Жанр: Драма
Режиссер: Николай Хомерики
Актеры: Пётр Фёдоров, Сергей Пускепалис, Анна Михалкова, Ольга Филимонова, Александр Яценко, Александр Паль, Виталий Хаев, Алексей Барабаш, Дмитрий Муляр, Артур Чиргадзе
Описание:
Основано на реальных событиях. 1985 год. Навстречу ледоколу «Михаил Громов» движется огромный айсберг. Уходя от столкновения с ним, судно попадает в ледовый плен и оказывается в вынужденном дрейфе вблизи побережья Антарктиды. Вокруг зловещая тишина и жуткий холод. Горючее на исходе… Нервы на пределе… И даже если можно было бы уйти — деваться все равно некуда. У командования ледокола нет права на ошибку. Одно неверное решение — и тяжелые льды раздавят судно…


Дата российской премьеры:
20 октября 2016 «Наше Кино»

Продолжительность: 01:34:00
Качество видео: WEBRip
Видео: AVC/H.264, 1920x1080 (16:9), ~1895 Kbps
Аудио: AAC, 2 ch, 126 Kbps, VBR

Mediainfo:

Формат                                   : MPEG-4
Профиль формата                          : Base Media
Идентификатор кодека                     : isom (isom/iso2/avc1/mp41)
Размер файла                             : 22,7 Мбайт
Продолжительность                        : 1 м. 34 с.
Режим общего битрейта                    : Переменный
Общий поток                              : 2021 Кбит/сек
Дата кодирования                         : UTC 2016-06-08 13:02:30
Дата пометки                             : UTC 2016-06-08 13:02:30
Видео
Идентификатор                            : 1
Формат                                   : AVC
Формат/Информация                        : Advanced Video Codec
Профиль формата                          : [email protected]
Параметр CABAC формата                   : Да
Параметр ReFrames формата                : 3 кадра
Идентификатор кодека                     : avc1
Идентификатор кодека/Информация          : Advanced Video Coding
Продолжительность                        : 1 м. 34 с.
Битрейт                                  : 1895 Кбит/сек
Ширина                                   : 1920 пикселей
Высота                                   : 1080 пикселей
Соотношение сторон                       : 16:9
Режим частоты кадров                     : Постоянный
Частота кадров                           : 24,000 кадра/сек
Цветовое пространство                    : YUV
Субдискретизация насыщенности            : 4:2:0
Битовая глубина                          : 8 бит
Тип развёртки                            : Прогрессивная
Бит/(Пиксели*Кадры)                      : 0.038
Размер потока                            : 21,2 Мбайт (94%)
Дата кодирования                         : UTC 2016-06-08 13:02:30
Дата пометки                             : UTC 2016-06-08 13:02:30
Цветовой диапазон                        : Limited
Основные цвета                           : BT.709
Характеристики трансфера                 : BT.709
Коэффициенты матрицы                     : BT.709
Аудио
Идентификатор                            : 2
Формат                                   : AAC
Формат/Информация                        : Advanced Audio Codec
Профиль формата                          : LC
Идентификатор кодека                     : 40
Продолжительность                        : 1 м. 34 с.
Вид битрейта                             : Переменный
Битрейт                                  : 126 Кбит/сек
Каналы                                   : 2 канала
Расположение каналов                     : Front: L R
Частота                                  : 44,1 КГц
Частота кадров                           : 43,066 кадра/сек (1024 spf)
Метод сжатия                             : С потерями
Размер потока                            : 1,41 Мбайт (6%)
Default                                  : Да
Alternate group                          : 1
Скриншоты:

[Цитировать]



Показать сообщения:    

Текущее время: 05-Дек 17:37

Часовой пояс: UTC + 3


Вы не можете начинать темы
Вы не можете отвечать на сообщения
Вы не можете редактировать свои сообщения
Вы не можете удалять свои сообщения
Вы не можете голосовать в опросах
Вы не можете прикреплять файлы к сообщениям
Вы не можете скачивать файлы

!ВНИМАНИЕ!
Сайт не предоставляет электронные версии произведений, а занимается лишь коллекционированием и каталогизацией ссылок, присылаемых и публикуемых на форуме нашими читателями. Если вы являетесь правообладателем какого-либо представленного материала и не желаете, чтобы ссылка на него находилась в нашем каталоге, свяжитесь с нами, и мы незамедлительно удалим ее. Файлы для обмена на трекере предоставлены пользователями сайта, и администрация не несет ответственности за их содержание. Просьба не заливать файлы, защищенные авторскими правами, а также файлы нелегального содержания!