[ Сегодня идет свободное скачивание без начисления Download ]


Статистика раздачи
Нет
 
   
 
Top  
 
 
Землетрясение (2016) WEBRip - Производство: Россия, Армения / Марс Медиа Энтертейнмент
Жанр: Драма
Режиссер: Сарик Андреасян
Актеры: Константин Лавроненко, Мария Миронова, Виктор Степанян, Татев Овакимян, Михаил Погосян, Грант Тохатян, Даниил Изотов, Микаэль Джанибекян, Сос Джанибекян, Арсен Григорян
Описание:
7 декабря 1988 года в Армении произошло землетрясение, охватившее почти половину территории республики. Были разрушены города Спитак, Ленинакан, Кировакан, Степанаван и ещё более 300 населённых пунктов. 25 тысяч человек погибли, 19 тысяч стали инвалидами, больше полумиллиона остались без крыши над головой.
На фоне природной катастрофы разворачивается история двух героев — 45-летнего Константина Бережного и 20-летнего Роберта Мелконяна. Судьба сталкивает их не впервые — много лет назад в автокатастрофе по вине Бережного погибли родители Роберта. Константин провел несколько лет в тюрьме, а маленького Роберта приютили родственники. По странному стечению обстоятельств Бережной возвращается к своей семье в день страшного землетрясения: его ждут жена, дочь, сын… и Роберт, который так и не простил ему гибели своих родителей. По иронии судьбы, герои оказываются в одном спасательном отряде, но узнают друг друга не сразу.


Дата российской премьеры: 1 декабря 2016, «Каропрокат»

Продолжительность: 00:02:26
Качество видео: WEBRip
Видео: AVC/H.264, 1920x1080 (16:9), ~1947 Kbps
Аудио: AAC, 2 ch, 126 Kbps, VBR

Mediainfo:

Формат                                   : MPEG-4
Профиль формата                          : Base Media
Идентификатор кодека                     : isom (isom/iso2/avc1/mp41)
Размер файла                             : 36,3 Мбайт
Продолжительность                        : 2 м. 26 с.
Режим общего битрейта                    : Переменный
Общий поток                              : 2076 Кбит/сек
Дата кодирования                         : UTC 2016-07-10 05:56:07
Дата пометки                             : UTC 2016-07-10 05:56:07
Видео
Идентификатор                            : 1
Формат                                   : AVC
Формат/Информация                        : Advanced Video Codec
Профиль формата                          : High@L4
Параметр CABAC формата                   : Да
Параметр ReFrames формата                : 3 кадра
Идентификатор кодека                     : avc1
Идентификатор кодека/Информация          : Advanced Video Coding
Продолжительность                        : 2 м. 26 с.
Битрейт                                  : 1947 Кбит/сек
Ширина                                   : 1920 пикселей
Высота                                   : 1080 пикселей
Соотношение сторон                       : 16:9
Режим частоты кадров                     : Постоянный
Частота кадров                           : 24,000 кадра/сек
Цветовое пространство                    : YUV
Субдискретизация насыщенности            : 4:2:0
Битовая глубина                          : 8 бит
Тип развёртки                            : Прогрессивная
Бит/(Пиксели*Кадры)                      : 0.039
Размер потока                            : 34,1 Мбайт (94%)
Дата кодирования                         : UTC 2016-07-10 05:56:07
Дата пометки                             : UTC 2016-07-10 05:56:07
Цветовой диапазон                        : Limited
Основные цвета                           : BT.709
Характеристики трансфера                 : BT.709
Коэффициенты матрицы                     : BT.709
Аудио
Идентификатор                            : 2
Формат                                   : AAC
Формат/Информация                        : Advanced Audio Codec
Профиль формата                          : LC
Идентификатор кодека                     : 40
Продолжительность                        : 2 м. 26 с.
Вид битрейта                             : Переменный
Битрейт                                  : 126 Кбит/сек
Каналы                                   : 2 канала
Расположение каналов                     : Front: L R
Частота                                  : 44,1 КГц
Частота кадров                           : 43,066 кадра/сек (1024 spf)
Метод сжатия                             : С потерями
Размер потока                            : 2,20 Мбайт (6%)
Default                                  : Да
Alternate group                          : 1
Скриншоты:

[Цитировать]



Показать сообщения:    

Текущее время: 09-Дек 06:56

Часовой пояс: UTC + 3


Вы не можете начинать темы
Вы не можете отвечать на сообщения
Вы не можете редактировать свои сообщения
Вы не можете удалять свои сообщения
Вы не можете голосовать в опросах
Вы не можете прикреплять файлы к сообщениям
Вы не можете скачивать файлы

!ВНИМАНИЕ!
Сайт не предоставляет электронные версии произведений, а занимается лишь коллекционированием и каталогизацией ссылок, присылаемых и публикуемых на форуме нашими читателями. Если вы являетесь правообладателем какого-либо представленного материала и не желаете, чтобы ссылка на него находилась в нашем каталоге, свяжитесь с нами, и мы незамедлительно удалим ее. Файлы для обмена на трекере предоставлены пользователями сайта, и администрация не несет ответственности за их содержание. Просьба не заливать файлы, защищенные авторскими правами, а также файлы нелегального содержания!