[ Сегодня идет свободное скачивание без начисления Download ]


Статистика раздачи
Скачал: [ 2 ]
 
   
 
Top  
 
 
Железный Ганс / Der Eisenhans (2011) Информация о фильме
Название: Железный Ганс
Оригинальное название: Der Eisenhans
Год выхода: 2011
Жанр: семейный, сказка, приключения
Режиссер: Мануэль Зибенманн
В ролях: Лоуренс Рапп, Паула Шрамм, Михаэль Мендль, Андре Хеннике, Марион Миттерхаммер, Йохан Адам Эст, Леопольд Концен, Вольфганг С. Цехмайер, Карл Фишер, Александр Ягш
О фильме:
Жил король, а возле его замка был дремучий лес, в котором водилась разная дичь. Никто из охотников не решался ходить туда, потому что охранял чащу лесной человек по имени Железный Ганс. Но нашелся один смельчак, который поймал Ганса и привел в замок. Лесного человека посадили в клетку, но тот хитростью заставил юного королевича открыть замок, да еще и унес мальчика с собой в лес. Однако Железный Ганс оказался не столь страшен, как представлялось поначалу...
По мотивам сказки братьев Гримм.

Производство: Германия, Австрия / Moviepool, Provobis Film, Tellux Film
Продолжительность: 01:23:19
Перевод: профессиональный (многолосый закадровый) [Игмар]
Файл
Качество: HDTVRip 1080p
Формат: MKV
Видео: MPEG-4 AVC, 1920x1080 (16:9), 25.000 fps, 5000 kbps, 0.096 bit/pixel
Аудио #1: русский, AC3 2.0, 48 kHz, 192 kbps
Аудио #2: немецкий, AC3 2.0, 48 kHz, 192 kbps

MediaInfo

Формат : Matroska
Версия формата : Version 4 / Version 2
Размер файла : 3,13 Гбайт
Продолжительность : 1 ч. 23 м.
Режим общего битрейта : Постоянный
Общий поток : 5380 Кбит/сек
Дата кодирования : UTC 2016-09-22 09:24:09
Программа кодирования : mkvmerge v7.9.0 ('Birds') 64bit
Библиотека кодирования : libebml v1.3.1 + libmatroska v1.4.2
Видео
Идентификатор : 1
Формат : AVC
Формат/Информация : Advanced Video Codec
Профиль формата : [email protected]
Параметр CABAC формата : Да
Параметр ReFrames формата : 3 кадра
Идентификатор кодека : V_MPEG4/ISO/AVC
Продолжительность : 1 ч. 23 м.
Вид битрейта : Постоянный
Битрейт : 5000 Кбит/сек
Ширина : 1920 пикселей
Высота : 1080 пикселей
Соотношение сторон : 16:9
Режим частоты кадров : Постоянный
Частота кадров : 25,000 кадров/сек
Стандарт вещания : PAL
Цветовое пространство : YUV
Субдискретизация насыщенности : 4:2:0
Битовая глубина : 8 бит
Тип развёртки : Прогрессивная
Бит/(Пиксели*Кадры) : 0.096
Размер потока : 2,85 Гбайт (91%)
Язык : German
Default : Да
Forced : Нет
Цветовой диапазон : Limited
Основные цвета : BT.709
Характеристики трансфера : BT.709
Коэффициенты матрицы : BT.709
Аудио #1
Идентификатор : 2
Формат : AC-3
Формат/Информация : Audio Coding 3
Расширение режима : CM (complete main)
Параметр Endianness формата : Big
Идентификатор кодека : A_AC3
Продолжительность : 1 ч. 23 м.
Вид битрейта : Постоянный
Битрейт : 192 Кбит/сек
Каналы : 2 канала
Расположение каналов : Front: L R
Частота : 48,0 КГц
Метод сжатия : С потерями
Размер потока : 114 Мбайт (4%)
Язык : Russian
Default : Да
Forced : Нет
Аудио #2
Идентификатор : 3
Формат : AC-3
Формат/Информация : Audio Coding 3
Расширение режима : CM (complete main)
Параметр Endianness формата : Big
Идентификатор кодека : A_AC3
Продолжительность : 1 ч. 23 м.
Вид битрейта : Постоянный
Битрейт : 192 Кбит/сек
Каналы : 2 канала
Расположение каналов : Front: L R
Частота : 48,0 КГц
Метод сжатия : С потерями
Размер потока : 114 Мбайт (4%)
Язык : German
Default : Нет
Forced : Нет

[Цитировать]



Показать сообщения:    

Текущее время: 04-Дек 02:57

Часовой пояс: UTC + 3


Вы не можете начинать темы
Вы не можете отвечать на сообщения
Вы не можете редактировать свои сообщения
Вы не можете удалять свои сообщения
Вы не можете голосовать в опросах
Вы не можете прикреплять файлы к сообщениям
Вы не можете скачивать файлы

!ВНИМАНИЕ!
Сайт не предоставляет электронные версии произведений, а занимается лишь коллекционированием и каталогизацией ссылок, присылаемых и публикуемых на форуме нашими читателями. Если вы являетесь правообладателем какого-либо представленного материала и не желаете, чтобы ссылка на него находилась в нашем каталоге, свяжитесь с нами, и мы незамедлительно удалим ее. Файлы для обмена на трекере предоставлены пользователями сайта, и администрация не несет ответственности за их содержание. Просьба не заливать файлы, защищенные авторскими правами, а также файлы нелегального содержания!