[ Сегодня идет свободное скачивание без начисления Download ]


Статистика раздачи
Нет
 
   
 
Top  
 
 
Дурная привычка / Thumbsucker (2004) Страна: США
Производство: Bob Yari Productions, Cinema-Go-Go, Good Machine, Keep Your Head
Год выпуска: 2004
Жанр: драма, комедия
Продолжительность: 01:31:47
Режиссер: Майк Миллс
Авторы сценария: Майк Миллс, Уолтер Кирн
В ролях: Лу Тэйлор Пуччи, Тильда Суинтон, Винсент Д’Онофрио, Киану Ривз, Бенджамин Брэтт, Келли Гарнер, Винс Вон, Тед Бекман
Описание: 17-летний Джастин живёт в очень странном мире, где родители запрещают ему звать их «мама» и «папа», а он сам не может и двух слов связать, чтобы признаться в любви к однокласснице. Пытаясь выйти из заколдованного круга, Джастин кардинальным образом меняет свою жизнь, превращаясь из скромного паренька в яркого оратора и пылкого любовника. В своём новом мире, мало похожем на реальность, вспомнит ли он, с какой безобидной привычки начались его приключения..?
[/url]
Перевод: Профессиональный (многоголосый, закадровый)
Субтитры: английские-Качество: HDTVRip 720p
Формат: MKV
Видео кодек: AVC
Аудио кодек: АС3
Видео: 1280x544 (2.35:1), 25.000 fps, MPEG-4 AVC ~6 365 kbps avg
Аудио №1: 48.0 kHz, AC3 Dolby Digital, 3/2 (L,C,R,l,r) + LFE ch, ~448 kbps | RUS
Аудио №2: 48.0 kHz, AC3 Dolby Digital, 3/2 (L,C,R,l,r) + LFE ch, ~448 kbps | ENG
Формат субтитров: UTF-8 Plain Text
Бюджет: $4 000 000
Дата премьеры (мир): 23 января 2005-
Приз Берлинского кинофестиваля, 2005 год
» Серебряный Медведь за лучшую мужскую роль / Лу Тэйлор Пуччи

Media Info

Уникальный идентификатор : 200870183979611116008914345453113899237 (0x971E30B2A83616D9B5CC1AA0B578F8E5)
Полное имя : Thumbsucker.2005.HDTV.720p.DD5.1.Rus.Eng.mkv
Формат : Matroska
Версия формата : Version 2
Размер файла : 4,66 Гбайт
Продолжительность : 1 ч. 31 м.
Общий поток : 7264 Кбит/сек
Дата кодирования : UTC 2012-07-02 19:40:14
Программа кодирования : mkvmerge v5.5.0 ('Healer') built on Apr 6 2012 21:43:24
Библиотека кодирования : libebml v1.2.3 + libmatroska v1.3.0
Видео
Идентификатор : 1
Формат : AVC
Формат/Информация : Advanced Video Codec
Профиль формата : High@L5.1
Параметр CABAC формата : Да
Параметр ReFrames формата : 13 кадров
Идентификатор кодека : V_MPEG4/ISO/AVC
Продолжительность : 1 ч. 31 м.
Битрейт : 6365 Кбит/сек
Ширина : 1280 пикселей
Высота : 544 пикселя
Соотношение сторон : 2,35:1
Частота кадров : 25,000 кадров/сек
Цветовое пространство : YUV
Субдискретизация насыщенности : 4:2:0
Битовая глубина : 8 бит
Тип развёртки : Прогрессивная
Бит/(Пиксели*Кадры) : 0.366
Размер потока : 3,99 Гбайт (86%)
Библиотека кодирования : x264 core 57 svn-709C
Настройки программы : cabac=1 / ref=10 / deblock=1:-3:-3 / analyse=0x3:0x133 / me=umh / fpel_cmp=sad / subme=7 / me-prepass=0 / brdo=1 / mixed_ref=1 / me_range=16 / chroma_me=1 / trellis=1 / 8x8dct=1 / cqm=2 / deadzone=21,11 / chroma_qp_offset=0 / threads=6 / nr=0 / decimate=1 / mbaff=0 / bframes=4 / b_pyramid=1 / b_adapt=1 / b_bias=0 / direct=3 / wpredb=1 / bime=1 / keyint=250 / keyint_min=25 / scenecut=40(pre) / rc=2pass / bitrate=6365 / ratetol=1.0 / rceq='blurCplx^(1-qComp)' / qcomp=0.60 / qpmin=10 / qpmax=51 / qpstep=4 / cplxblur=20.0 / qblur=0.5 / ip_ratio=1.40 / pb_ratio=1.30 / aq=1:0.4:15.0
Default : Да
Forced : Нет
Аудио #1
Идентификатор : 2
Формат : AC-3
Формат/Информация : Audio Coding 3
Расширение режима : CM (complete main)
Параметр Endianness формата : Big
Идентификатор кодека : A_AC3
Продолжительность : 1 ч. 31 м.
Вид битрейта : Постоянный
Битрейт : 448 Кбит/сек
Каналы : 6 каналов
Расположение каналов : Front: L C R, Side: L R, LFE
Частота : 48,0 КГц
Битовая глубина : 16 бит
Метод сжатия : С потерями
Размер потока : 294 Мбайт (6%)
Заголовок : Многоголосый закадровый (R5)
Язык : Russian
Default : Да
Forced : Нет
Аудио #2
Идентификатор : 3
Формат : AC-3
Формат/Информация : Audio Coding 3
Расширение режима : CM (complete main)
Параметр Endianness формата : Big
Идентификатор кодека : A_AC3
Продолжительность : 1 ч. 31 м.
Вид битрейта : Постоянный
Битрейт : 448 Кбит/сек
Каналы : 6 каналов
Расположение каналов : Front: L C R, Side: L R, LFE
Частота : 48,0 КГц
Битовая глубина : 16 бит
Метод сжатия : С потерями
Размер потока : 294 Мбайт (6%)
Заголовок : Оригинал
Язык : English
Default : Нет
Forced : Нет
Текст
Идентификатор : 4
Формат : UTF-8
Идентификатор кодека : S_TEXT/UTF8
Идентификатор кодека/Информация : UTF-8 Plain Text
Язык : English
Default : Нет
Forced : Нет
Меню
00:00:00.000 : en:Chapter 1
00:03:28.000 : en:Chapter 2
00:06:43.520 : en:Chapter 3
00:10:27.120 : en:Chapter 4
00:14:03.960 : en:Chapter 5
00:18:07.840 : en:Chapter 6
00:22:30.960 : en:Chapter 7
00:26:36.920 : en:Chapter 8
00:30:35.600 : en:Chapter 9
00:34:16.600 : en:Chapter 10
00:38:26.720 : en:Chapter 11
00:42:00.960 : en:Chapter 12
00:46:07.440 : en:Chapter 13
00:50:56.560 : en:Chapter 14
00:55:07.720 : en:Chapter 15
00:58:19.080 : en:Chapter 16
01:01:47.080 : en:Chapter 17
01:05:46.280 : en:Chapter 18
01:09:58.480 : en:Chapter 19
01:12:42.800 : en:Chapter 20
01:16:27.440 : en:Chapter 21
01:19:31.000 : en:Chapter 22
01:26:36.880 : en:Chapter 23
01:28:30.760 : en:Chapter 24

Скриншоты

[Цитировать]



Показать сообщения:    

Текущее время: 24-Мар 18:09

Часовой пояс: UTC + 6


Вы не можете начинать темы
Вы не можете отвечать на сообщения
Вы не можете редактировать свои сообщения
Вы не можете удалять свои сообщения
Вы не можете голосовать в опросах
Вы не можете прикреплять файлы к сообщениям
Вы не можете скачивать файлы

!ВНИМАНИЕ!
Сайт не предоставляет электронные версии произведений, а занимается лишь коллекционированием и каталогизацией ссылок, присылаемых и публикуемых на форуме нашими читателями. Если вы являетесь правообладателем какого-либо представленного материала и не желаете, чтобы ссылка на него находилась в нашем каталоге, свяжитесь с нами, и мы незамедлительно удалим ее. Файлы для обмена на трекере предоставлены пользователями сайта, и администрация не несет ответственности за их содержание. Просьба не заливать файлы, защищенные авторскими правами, а также файлы нелегального содержания!