[ Сегодня идет свободное скачивание без начисления Download ]


Статистика раздачи
Нет
 
   
 
Top  
 
 
Потерянные в Мюнхене / Ztraceni v Mnichove (2015) Страна: Чехия
Производство: Lucky Man Films
Год выпуска: 2015
Жанр: драма, комедия
Продолжительность: 01:47:11
Режиссер: Петр Зеленка
Автор сценария: Петр Зеленка
В ролях: Алена Долякова, Марсиаль Ди Фондзо Бо, Яна Плодкова, Йитка Шнайдерова, Томаш Бамбушек, Вацлав Неужил, Мартин Мышичка
Описание: В сентябре 1938 Англия и Франция уступили Гитлеру часть чешских областей в Судетах, испугавшись открытого военного столкновения с Германией. В те дни 1938 года, на позорных переговорах с Гитлером, Францию представлял Премьер - министр Эдуард Деладье. Его соглашательская позиция по отношению к Германии, в то время отчасти объяснялась трусостью и нежеланием воевать с немцами, однако, спустя 70 лет после этого события, выясняется, что Деладье просто-таки презирал чехов и восхищался Гитлером. А вот выясняется это благодаря попугаю! У Деладье был замечательный серый африканский Жако, который научился говорить не просто, повторяя слова за хозяином, но и делать это голосом самого Премьер - министра. И вот вам сюжет фильма - недалёкого ума французский посланник в шутку привозит в Чехию этого попугая, который вовсю разносит чешский народ нелицеприятными словечками, да ещё голосом Деладье! Ловкий чешский журналист, у которого всё валится из рук - жена изменяет, на работе проблемы, - хватает этого попугая прямо с пресс- конференции, и устраивает грандиозное шоу с выступлением этой птицы по радио и на ТВ...


Перевод: Авторский (одноголосый) | Антон Карповский
Субтитры: английские, чешские (forced + full), французские, венгерские-Качество: BDRip 720p
Формат: MKV
Видео кодек: AVC
Аудио кодек: AC3
Видео: 1280x536 (2.40:1), 23.976 fps, MPEG-4 AVC ~9 997 kbps avg
Аудио №1: 48.0 kHz, AC3 Dolby Digital, 3/2 (L,C,R,l,r) + LFE ch, ~640 kbps | RUS
Аудио №2: 48.0 kHz, AC3 Dolby Digital, 3/2 (L,C,R,l,r) + LFE ch, ~640 kbps | СZE
Формат субтитров: UTF-8 Plain Text
Дата премьеры (мир): 8 октября 2015
Релиз от: ylnian
Дополнительная информация: сборка дороги - rammzez

Media Info

General
Уникальный идентификатор : 233078494548168351961392794094065946778 (0xAF594903262B6B33A7F031CF2270109A)
Полное имя : Ztraceni.v.Mnichove.2015.BDRip.720p-ylnian.mkv
Формат : Matroska
Версия формата : Version 4 / Version 2
Размер файла : 8,45 Гбайт
Продолжительность : 1 ч. 47 м.
Общий поток : 11,3 Мбит/сек
Название фильма : Ztraceni.v.Mnichove.2015.BDRip.720p-ylnian
Дата кодирования : UTC 2016-09-23 10:18:58
Программа кодирования : mkvmerge v9.3.1 ('Mask Machine') 64bit
Библиотека кодирования : libebml v1.3.4 + libmatroska v1.4.5
Видео
Идентификатор : 1
Формат : AVC
Формат/Информация : Advanced Video Codec
Профиль формата : High@L4.1
Параметр CABAC формата : Да
Параметр ReFrames формата : 12 кадров
Идентификатор кодека : V_MPEG4/ISO/AVC
Продолжительность : 1 ч. 47 м.
Битрейт : 9997 Кбит/сек
Ширина : 1280 пикселей
Высота : 536 пикселей
Соотношение сторон : 2,40:1
Режим частоты кадров : Постоянный
Частота кадров : 23,976 (24000/1001) кадра/сек
Цветовое пространство : YUV
Субдискретизация насыщенности : 4:2:0
Битовая глубина : 8 бит
Тип развёртки : Прогрессивная
Бит/(Пиксели*Кадры) : 0.608
Размер потока : 7,49 Гбайт (89%)
Заголовок : Lost.in.Munich.AKA.Ztraceni.v.Mnichove.2015.720p.BluRay.DD5.1.x264-NCmt
Библиотека кодирования : x264 core 148 r2665 a01e339
Настройки программы : cabac=1 / ref=12 / deblock=1:-3:-3 / analyse=0x3:0x133 / me=umh / subme=11 / psy=1 / psy_rd=1.00:0.00 / mixed_ref=1 / me_range=32 / chroma_me=1 / trellis=2 / 8x8dct=1 / cqm=0 / deadzone=21,11 / fast_pskip=0 / chroma_qp_offset=-2 / threads=6 / lookahead_threads=1 / sliced_threads=0 / nr=0 / decimate=0 / interlaced=0 / bluray_compat=0 / constrained_intra=0 / bframes=16 / b_pyramid=2 / b_adapt=2 / b_bias=0 / direct=3 / weightb=1 / open_gop=0 / weightp=2 / keyint=250 / keyint_min=24 / scenecut=40 / intra_refresh=0 / rc_lookahead=60 / rc=crf / mbtree=0 / crf=17.7 / qcomp=0.72 / qpmin=0 / qpmax=69 / qpstep=4 / vbv_maxrate=38000 / vbv_bufsize=30000 / crf_max=0.0 / nal_hrd=none / filler=0 / ip_ratio=1.40 / pb_ratio=1.23 / aq=2:0.64
Язык : Czech
Default : Да
Forced : Да
Аудио #1
Идентификатор : 2
Формат : AC-3
Формат/Информация : Audio Coding 3
Расширение режима : CM (complete main)
Параметр Endianness формата : Big
Идентификатор кодека : A_AC3
Продолжительность : 1 ч. 47 м.
Вид битрейта : Постоянный
Битрейт : 640 Кбит/сек
Каналы : 6 каналов
Расположение каналов : Front: L C R, Side: L R, LFE
Частота : 48,0 КГц
Частота кадров : 31,250 кадров/сек (1536 spf)
Метод сжатия : С потерями
Размер потока : 491 Мбайт (6%)
Заголовок : AVO (Карповский) (AC3 5.1 640 kbps)
Язык : Russian
Default : Да
Forced : Да
Аудио #2
Идентификатор : 3
Формат : AC-3
Формат/Информация : Audio Coding 3
Расширение режима : CM (complete main)
Параметр Endianness формата : Big
Идентификатор кодека : A_AC3
Продолжительность : 1 ч. 47 м.
Вид битрейта : Постоянный
Битрейт : 640 Кбит/сек
Каналы : 6 каналов
Расположение каналов : Front: L C R, Side: L R, LFE
Частота : 48,0 КГц
Частота кадров : 31,250 кадров/сек (1536 spf)
Метод сжатия : С потерями
Размер потока : 491 Мбайт (6%)
Заголовок : AC3 5.1 640 kbps
Язык : Czech
Default : Нет
Forced : Нет
Текст #1
Идентификатор : 4
Формат : UTF-8
Идентификатор кодека : S_TEXT/UTF8
Идентификатор кодека/Информация : UTF-8 Plain Text
Продолжительность : 1 ч. 46 м.
Битрейт : 73 бит/сек
Count of elements : 1198
Размер потока : 57,1 Кбайт (0%)
Заголовок : English
Язык : English
Default : Нет
Forced : Нет
Текст #2
Идентификатор : 5
Формат : UTF-8
Идентификатор кодека : S_TEXT/UTF8
Идентификатор кодека/Информация : UTF-8 Plain Text
Продолжительность : 1 ч. 35 м.
Битрейт : 6 бит/сек
Count of elements : 126
Размер потока : 4,90 Кбайт (0%)
Заголовок : Czech Forced
Язык : Czech
Default : Нет
Forced : Нет
Текст #3
Идентификатор : 6
Формат : UTF-8
Идентификатор кодека : S_TEXT/UTF8
Идентификатор кодека/Информация : UTF-8 Plain Text
Продолжительность : 1 ч. 46 м.
Битрейт : 75 бит/сек
Count of elements : 1306
Размер потока : 59,2 Кбайт (0%)
Заголовок : Czech
Язык : Czech
Default : Нет
Forced : Нет
Текст #4
Идентификатор : 7
Формат : UTF-8
Идентификатор кодека : S_TEXT/UTF8
Идентификатор кодека/Информация : UTF-8 Plain Text
Продолжительность : 1 ч. 47 м.
Битрейт : 63 бит/сек
Count of elements : 1022
Размер потока : 49,7 Кбайт (0%)
Заголовок : French
Язык : French
Default : Нет
Forced : Нет
Текст #5
Идентификатор : 8
Формат : UTF-8
Идентификатор кодека : S_TEXT/UTF8
Идентификатор кодека/Информация : UTF-8 Plain Text
Продолжительность : 1 ч. 46 м.
Битрейт : 71 бит/сек
Count of elements : 1233
Размер потока : 55,8 Кбайт (0%)
Заголовок : Hungarian
Язык : Hungarian
Default : Нет
Forced : Нет
Меню
00:00:00.000 : en:Chapter 01
00:08:01.481 : en:Chapter 02
00:17:14.909 : en:Chapter 03
00:25:26.608 : en:Chapter 04
00:30:12.894 : en:Chapter 05
00:38:56.417 : en:Chapter 06
00:46:12.353 : en:Chapter 07
00:54:00.821 : en:Chapter 08
01:01:16.756 : en:Chapter 09
01:10:51.330 : en:Chapter 10
01:24:52.671 : en:Chapter 11
01:40:45.623 : en:Chapter 12

Скриншоты

[Цитировать]



Показать сообщения:    

Текущее время: 02-Дек 21:02

Часовой пояс: UTC + 3


Вы не можете начинать темы
Вы не можете отвечать на сообщения
Вы не можете редактировать свои сообщения
Вы не можете удалять свои сообщения
Вы не можете голосовать в опросах
Вы не можете прикреплять файлы к сообщениям
Вы не можете скачивать файлы

!ВНИМАНИЕ!
Сайт не предоставляет электронные версии произведений, а занимается лишь коллекционированием и каталогизацией ссылок, присылаемых и публикуемых на форуме нашими читателями. Если вы являетесь правообладателем какого-либо представленного материала и не желаете, чтобы ссылка на него находилась в нашем каталоге, свяжитесь с нами, и мы незамедлительно удалим ее. Файлы для обмена на трекере предоставлены пользователями сайта, и администрация не несет ответственности за их содержание. Просьба не заливать файлы, защищенные авторскими правами, а также файлы нелегального содержания!