[ Сегодня идет свободное скачивание без начисления Download ]


Статистика раздачи
Скачал: [ 3 ]
 
   
 
Top  
 
 
Варкрафт / Warcraft (2016) Информация о фильме
Название: Варкрафт
Оригинальное название: Warcraft
Год выпуска: 2016
Жанр: Фэнтези, боевик, приключения
Выпущено: США, Atlas Entertainment, Blizzard Entertainment, Legendary Pictures, Universal Pictures
Режиссер: Дункан Джонс
В ролях: Трэвис Фиммел, Пола Пэттон, Бен Фостер, Доминик Купер, Тоби Кеббелл, Бен Шнетцер, Роберт Казински, Клэнси Браун, Дэниэл Ву, Рут Негга
О фильме: Первая высокобюджетная экранизация, созданная по вселенной компьютерной игре «Варкрафт». Бесчисленные орды диких орков бегут со своей гибнущей родины в новый мир, где в мирной идиллии живут племена людей и кланы волшебников. Древние силы зла смертельной угрозой нависли над землями королевства Азерот – кто выйдет победителем из решающей схватки?

Файл
Качество: BDRip (1080p)
Видео: MPEG-4 AVC, 8742 Кбит/с, 1920x790, 23.976 кадр/с
Аудио: Русский, английский (AC3, 6 ch, 640 Кбит/с)
Размер: 8.62 ГБ
Продолжительность: 02:03:07
Перевод: Дублированный
Субтитры: Русские, латышские, литовские, эстонские, украинские, английские
Сохранены оригинальные чаптеры как на Blu-Ray.
Озвучивание - Дублированное (Лицензия)

x264

x264 [info]: frame I:1427 Avg QP:15.72 size:232047
x264 [info]: frame P:55492 Avg QP:18.81 size: 79053
x264 [info]: frame B:120201 Avg QP:20.25 size: 27907
x264 [info]: consecutive B-frames: 7.2% 6.6% 28.6% 25.5% 14.9% 14.6% 1.7% 0.2% 0.3% 0.2% 0.3%
x264 [info]: mb I I16..4: 8.7% 78.0% 13.3%
x264 [info]: mb P I16..4: 2.7% 22.4% 1.6% P16..4: 31.9% 29.6% 9.2% 1.2% 0.1% skip: 1.3%
x264 [info]: mb B I16..4: 0.9% 3.6% 0.2% B16..8: 34.0% 19.1% 2.9% direct: 8.6% skip:30.7% L0:38.2% L1:43.0% BI:18.8%
x264 [info]: 8x8 transform intra:81.5% inter:58.9%
x264 [info]: direct mvs spatial:98.3% temporal:1.7%
x264 [info]: coded y,uvDC,uvAC intra: 80.7% 93.3% 82.7% inter: 30.6% 39.6% 22.7%
x264 [info]: i16 v,h,dc,p: 51% 11% 9% 30%
x264 [info]: i8 v,h,dc,ddl,ddr,vr,hd,vl,hu: 10% 8% 12% 9% 12% 12% 12% 12% 14%
x264 [info]: i4 v,h,dc,ddl,ddr,vr,hd,vl,hu: 16% 7% 20% 7% 12% 11% 11% 8% 9%
x264 [info]: i8c dc,h,v,p: 52% 18% 13% 16%
x264 [info]: Weighted P-Frames: Y:5.9% UV:3.9%
x264 [info]: ref P L0: 52.0% 13.1% 20.1% 6.1% 5.9% 2.7% 0.1%
x264 [info]: ref B L0: 78.5% 15.6% 4.3% 1.6%
x264 [info]: ref B L1: 93.4% 6.6%
x264 [info]: kb/s:8741.86

Инфо-файл

Общее
Уникальный идентификатор : 217251039393209957187085275987614654004 (0xA371073988F15BB39EAB8989F0D05E34)
Полное имя : D:ЗагрузкиWarcraft.2016.x264.BDRip.(1080p).ExKinoRay.mkv
Формат : Matroska
Версия формата : Version 2
Размер файла : 8,62 Гбайт
Продолжительность : 2 ч. 3 м.
Общий поток : 10,0 Мбит/сек
Название фильма : Варкрафт.2016.Rip by: ollan
Дата кодирования : UTC 2016-09-22 01:03:46
Программа кодирования : mkvmerge v5.6.0 ('Kenya Kane') built on May 27 2012 16:44:04
Библиотека кодирования : libebml v1.2.3 + libmatroska v1.3.0
Attachements : Cover - Warcraft.png
Видео
Идентификатор : 1
Формат : AVC
Формат/Информация : Advanced Video Codec
Профиль формата : [email protected]
Параметр CABAC формата : Да
Параметр ReFrames формата : 5 кадров
Идентификатор кодека : V_MPEG4/ISO/AVC
Продолжительность : 2 ч. 3 м.
Битрейт : 8742 Кбит/сек
Ширина : 1920 пикселей
Высота : 790 пикселей
Соотношение сторон : 2,40:1
Режим частоты кадров : Постоянный
Частота кадров : 23,976 (24000/1001) кадра/сек
Цветовое пространство : YUV
Субдискретизация насыщенности : 4:2:0
Битовая глубина : 8 бит
Тип развёртки : Прогрессивная
Бит/(Пиксели*Кадры) : 0.240
Размер потока : 7,35 Гбайт (85%)
Библиотека кодирования : x264 core 146 r2538 121396c
Настройки программы : cabac=1 / ref=5 / deblock=1:-3:-3 / analyse=0x3:0x133 / me=umh / subme=11 / psy=1 / psy_rd=1.02:0.07 / mixed_ref=1 / me_range=48 / chroma_me=1 / trellis=2 / 8x8dct=1 / cqm=0 / deadzone=21,11 / fast_pskip=0 / chroma_qp_offset=-3 / threads=12 / lookahead_threads=3 / sliced_threads=0 / nr=0 / decimate=0 / interlaced=0 / bluray_compat=0 / constrained_intra=0 / bframes=10 / b_pyramid=2 / b_adapt=2 / b_bias=0 / direct=3 / weightb=1 / open_gop=0 / weightp=2 / keyint=240 / keyint_min=23 / scenecut=40 / intra_refresh=0 / rc_lookahead=40 / rc=2pass / mbtree=0 / bitrate=8742 / ratetol=1.0 / qcomp=0.60 / qpmin=0 / qpmax=69 / qpstep=4 / cplxblur=20.0 / qblur=0.5 / vbv_maxrate=50000 / vbv_bufsize=62500 / nal_hrd=none / filler=0 / ip_ratio=1.40 / pb_ratio=1.30 / aq=1:1.00
Язык : English
Default : Да
Forced : Нет
Аудио #1
Идентификатор : 2
Формат : AC-3
Формат/Информация : Audio Coding 3
Расширение режима : CM (complete main)
Параметр Endianness формата : Big
Идентификатор кодека : A_AC3
Продолжительность : 2 ч. 3 м.
Вид битрейта : Постоянный
Битрейт : 640 Кбит/сек
Каналы : 6 каналов
Расположение каналов : Front: L C R, Side: L R, LFE
Частота : 48,0 КГц
Частота кадров : 31,250 кадров/сек (1536 spf)
Метод сжатия : С потерями
Размер потока : 564 Мбайт (6%)
Заголовок : Дублированный (Лицензия)
Язык : Russian
Default : Да
Forced : Нет
Аудио #2
Идентификатор : 3
Формат : AC-3
Формат/Информация : Audio Coding 3
Расширение режима : CM (complete main)
Параметр Endianness формата : Big
Идентификатор кодека : A_AC3
Продолжительность : 2 ч. 3 м.
Вид битрейта : Постоянный
Битрейт : 640 Кбит/сек
Каналы : 6 каналов
Расположение каналов : Front: L C R, Side: L R, LFE
Частота : 48,0 КГц
Частота кадров : 31,250 кадров/сек (1536 spf)
Метод сжатия : С потерями
Размер потока : 564 Мбайт (6%)
Язык : English
Default : Нет
Forced : Нет
Текст #1
Идентификатор : 4
Формат : UTF-8
Идентификатор кодека : S_TEXT/UTF8
Идентификатор кодека/Информация : UTF-8 Plain Text
Заголовок : Forced
Язык : Russian
Default : Да
Forced : Нет
Текст #2
Идентификатор : 5
Формат : UTF-8
Идентификатор кодека : S_TEXT/UTF8
Идентификатор кодека/Информация : UTF-8 Plain Text
Заголовок : Full
Язык : Russian
Default : Нет
Forced : Нет
Текст #3
Идентификатор : 6
Формат : UTF-8
Идентификатор кодека : S_TEXT/UTF8
Идентификатор кодека/Информация : UTF-8 Plain Text
Заголовок : Full
Язык : Latvian
Default : Нет
Forced : Нет
Текст #4
Идентификатор : 7
Формат : UTF-8
Идентификатор кодека : S_TEXT/UTF8
Идентификатор кодека/Информация : UTF-8 Plain Text
Заголовок : Full
Язык : Lithuanian
Default : Нет
Forced : Нет
Текст #5
Идентификатор : 8
Формат : UTF-8
Идентификатор кодека : S_TEXT/UTF8
Идентификатор кодека/Информация : UTF-8 Plain Text
Заголовок : Full
Язык : Estonian
Default : Нет
Forced : Нет
Текст #6
Идентификатор : 9
Формат : UTF-8
Идентификатор кодека : S_TEXT/UTF8
Идентификатор кодека/Информация : UTF-8 Plain Text
Заголовок : Full
Язык : Ukrainian
Default : Нет
Forced : Нет
Текст #7
Идентификатор : 10
Формат : UTF-8
Идентификатор кодека : S_TEXT/UTF8
Идентификатор кодека/Информация : UTF-8 Plain Text
Заголовок : Full
Язык : English
Default : Нет
Forced : Нет
Меню
00:00:00.000 : en:Chapter 01
00:09:26.482 : en:Chapter 02
00:15:49.407 : en:Chapter 03
00:22:36.145 : en:Chapter 04
00:29:16.171 : en:Chapter 05
00:38:43.321 : en:Chapter 06
00:46:44.093 : en:Chapter 07
00:53:02.679 : en:Chapter 08
00:56:17.332 : en:Chapter 09
01:02:43.927 : en:Chapter 10
01:07:48.314 : en:Chapter 11
01:12:24.549 : en:Chapter 12
01:17:13.045 : en:Chapter 13
01:22:45.669 : en:Chapter 14
01:26:32.145 : en:Chapter 15
01:32:29.669 : en:Chapter 16
01:40:25.102 : en:Chapter 17
01:47:38.118 : en:Chapter 18
01:51:12.833 : en:Chapter 19
01:53:58.832 : en:Chapter 20

Скриншоты

[Цитировать]



Показать сообщения:    

Текущее время: 06-Дек 19:04

Часовой пояс: UTC + 3


Вы не можете начинать темы
Вы не можете отвечать на сообщения
Вы не можете редактировать свои сообщения
Вы не можете удалять свои сообщения
Вы не можете голосовать в опросах
Вы не можете прикреплять файлы к сообщениям
Вы не можете скачивать файлы

!ВНИМАНИЕ!
Сайт не предоставляет электронные версии произведений, а занимается лишь коллекционированием и каталогизацией ссылок, присылаемых и публикуемых на форуме нашими читателями. Если вы являетесь правообладателем какого-либо представленного материала и не желаете, чтобы ссылка на него находилась в нашем каталоге, свяжитесь с нами, и мы незамедлительно удалим ее. Файлы для обмена на трекере предоставлены пользователями сайта, и администрация не несет ответственности за их содержание. Просьба не заливать файлы, защищенные авторскими правами, а также файлы нелегального содержания!