[ Сегодня идет свободное скачивание без начисления Download ]


Статистика раздачи
Нет
 
   
 
Top  
 
 
-Облачный атлас / Cloud Atlas (2012) DVD9
«Всё взаимосвязано»
- Русское название: Облачный атлас
Оригинальное название: Cloud Atlas
Год выпуска: 2012
Производство: Anarchos Pictures / Cloud Atlas Productions / X-Filme Creative Pool / Media Asia Group Ltd. [Германия, США, Гонконг, Сингапур]
Жанр: Фантастика, драма, детектив
Перевод: Дублированный [лицензия]
Субтитры: Отсутствуют
Режиссер: Лана Вачовски, Том Тыквер, Энди Вачовски
Актеры: Том Хэнкс, Холли Берри, Джим Броудбент, Хьюго Уивинг, Джим Стёрджесс, Пэ Дуна, Бен Уишоу, Джеймс Д’Арси, Кит Дэвид
Описание фильма:
Шесть историй — пять реинкарнаций, происходящих в разное время, тесно переплетаются между собой… Многослойный сюжет начинается с истории американского нотариуса из 19 века, за ним следом идёт бедный музыкант-англичанин из 1930. Далее — издатель гламурных журналов, герой нашего времени. В ближайшем будущем центральным персонажем станет клон-бунтарь, и всё закончится на примитивном человеке на Гавайях, который пережил апокалипсис.
Дата мировой премьеры: 8 сентября 2012
Дата российской премьеры: 8 ноября 2012, «20 Век Фокс СНГ»
Дата выхода DVD релиза: 25 декабря 2012, «Новый Диск»
Дата выхода Blu-Ray релиза: 25 декабря 2012, «Новый Диск»
Продолжительность: 02:45:05
Качество видео: DVD9 (R5)
Видео: MPEG-2, 720x576@1024x576 (PAL 16:9), ~5600 kbps, Bit/Pixel: 0.544
Аудио: AC3 5.1, 448 kbps [Русский]

Дополнительные материалы...

Отсутствуют

DVDInfo…

Title: Cloud.Atlas.(2012).DVD9
Size: 7.08 Gb ( 7 428 900 KBytes ) - DVD-9
Enabled regions: 1, 2, 3, 4, 5, 6, 7, 8
VTS_01 :
Play Length: 00:00:15
Video: PAL 4:3 (720x576) VBR
Audio:
Not specified (Dolby AC3, 2 ch)
VTS_02 :
Play Length: 00:00:08
Video: PAL 16:9 (720x576) VBR, Auto Pan&Scan
Audio:
Not specified (Dolby AC3, 6 ch)
VTS_03 :
Play Length: 00:00:05
Video: PAL 16:9 (720x576) VBR, Auto Pan&Scan
Audio:
Russian (Dolby AC3, 2 ch)
Russian (Dolby AC3, 2 ch)
VTS_04 :
Play Length: 02:45:05
Video: PAL 16:9 (720x576) VBR, Auto Pan&Scan
Audio:
Russian (Dolby AC3, 6 ch)
VTS_05 :
Play Length: 00:00:01
Video: PAL 16:9 (720x576) VBR, Auto Pan&Scan
Audio:
Russian (Dolby AC3, 2 ch)
Russian (Dolby AC3, 2 ch)

MediaInfo...

Полное имя : D:\Cloud.Atlas.(2012).DVD9\VIDEO_TS\VTS_04_1.VOB
Формат : MPEG-PS
Размер файла : 1024 Мбайт
Продолжительность : 23 м.
Режим общего битрейта : Переменный
Общий поток : 6212 Кбит/сек
Видео
Идентификатор : 224 (0xE0)
Формат : MPEG Video
Версия формата : Version 2
Профиль формата : Main@Main
Параметр BVOP формата : Да
Параметр матрицы формата : По умолчанию
Параметр GOP формата : M=3, N=12
Продолжительность : 23 м.
Вид битрейта : Переменный
Битрейт : 5640 Кбит/сек
Максимальный битрейт : 8000 Кбит/сек
Ширина : 720 пикселей
Высота : 576 пикселей
Соотношение сторон : 16:9
Частота кадров : 25,000 кадров/сек
Стандарт вещания : PAL
Цветовое пространство : YUV
Субдискретизация насыщенности : 4:2:0
Битовая глубина : 8 бит
Тип развёртки : Чересстрочная
Порядок развёртки : Верхнее поле первое
Метод сжатия : С потерями
Бит/(Пиксели*Кадры) : 0.544
Размер потока : 930 Мбайт (91%)
Основные цвета : BT.601 PAL
Характеристики трансфера : BT.470 System B, BT.470 System G
Коэффициенты матрицы : BT.601
Аудио
Идентификатор : 189 (0xBD)-128 (0x80)
Формат : AC-3
Формат/Информация : Audio Coding 3
Расширение режима : CM (complete main)
Параметр Endianness формата : Big
Режим смешивания : DVD-Video
Продолжительность : 23 м.
Вид битрейта : Постоянный
Битрейт : 448 Кбит/сек
Каналы : 6 каналов
Расположение каналов : Front: L C R, Side: L R, LFE
Частота : 48,0 КГц
Битовая глубина : 16 бит
Метод сжатия : С потерями
Размер потока : 73,8 Мбайт (7%)
Меню

Скриншоты меню...

Скриншоты:


Время раздачи: 24/7 (до 10 скачавших)

[Цитировать]



Показать сообщения:    

Текущее время: 10-Дек 04:14

Часовой пояс: UTC + 3


Вы не можете начинать темы
Вы не можете отвечать на сообщения
Вы не можете редактировать свои сообщения
Вы не можете удалять свои сообщения
Вы не можете голосовать в опросах
Вы не можете прикреплять файлы к сообщениям
Вы не можете скачивать файлы

!ВНИМАНИЕ!
Сайт не предоставляет электронные версии произведений, а занимается лишь коллекционированием и каталогизацией ссылок, присылаемых и публикуемых на форуме нашими читателями. Если вы являетесь правообладателем какого-либо представленного материала и не желаете, чтобы ссылка на него находилась в нашем каталоге, свяжитесь с нами, и мы незамедлительно удалим ее. Файлы для обмена на трекере предоставлены пользователями сайта, и администрация не несет ответственности за их содержание. Просьба не заливать файлы, защищенные авторскими правами, а также файлы нелегального содержания!