[ Сегодня идет свободное скачивание без начисления Download ]


Статистика раздачи
Нет
 
   
 
Top  
 
 
-Неудержимые 2 / The Expendables 2 (2012) DVD9
«Они вернулись, чтобы зажечь»- Русское название: Неудержимые 2
Оригинальное название: The Expendables 2
Год выпуска: 2012
Производство: США / Millennium Films, Nu-Image Films
Жанр: Боевик, триллер
Перевод: Дублированный [лицензия]
Субтитры: Отсутствуют
Дата мировой премьеры: 8 августа 2012
Дата российской премьеры: 16 августа 2012, «UPI»
Дата выхода DVD релиза: 16 октября 2012, «Флагман-Трейд»
Дата выхода Blu-Ray релиза: 27 ноября 2012, «Флагман-Трейд»
Режиссер: Саймон Уэст
Актеры: Сильвестр Сталлоне, Джейсон Стэйтем, Дольф Лундгрен, Жан-Клод Ван Дамм, Терри Крюс, Рэнди Кутюр, Лиам Хемсворт, Юй Нань, Брюс Уиллис, Арнольд Шварценеггер
Описание фильма:
Можно ли попробовать изменить расстановку сил в мире? Да, если вы круты как Ван Дамм, у вас есть пять тонн плутония и первоклассные наемники. Стоит ли шутить с Уиллисом, когда вы ему серьезно задолжали? Нет, даже если вы опасны как Сталлоне и у вас за спиной Неудержимые. Кого позвать на такое плевое дельце, как спасение мира? Пара проверенных ребят, Стэйтем и Норрис, явно не помешают. Пригодятся и малыш Хемсворт, и опасная красотка. Но команда будет неполной без Шварценеггера. Он реально вернулся! Все в сборе. Понеслась…
Рейтинг R17 - Детям до 17 лет обязательно присутствие родителей
Продолжительность: 01:38:05
Качество видео: DVD9
Видеокодек: MPEG-2
Битрейт видео: ~9333 kbps
Размер кадра: 720x576@1024x576 (PAL 16:9)
Аудио: AC3 5.1, 448 kbps, 48.0 KHz [Русский]

Дополнительные материалы:

Отсутствуют

DVDinfo:

Title: The.Expendables.2.(2012).DVD9
Size: 6.92 Gb ( 7 255 382 KBytes ) - DVD-9
Enabled regions: 1, 2, 3, 4, 5, 6, 7, 8
VTS_01 :
Play Length: 01:38:05
Video: PAL 16:9 (720x576) VBR, Auto Pan&Scan
Audio:
Russian (Dolby AC3, 6 ch)
VTS_02 :
Play Length: 00:00:16+00:00:08
Video: PAL 16:9 (720x576) VBR, Auto Pan&Scan
Audio:
Russian (Dolby AC3, 2 ch)

MediaInfo:

Полное имя : D:\The.Expendables.2.(2012).DVD9\VIDEO_TS\VTS_01_4.VOB
Формат : MPEG-PS
Размер файла : 1024 Мбайт
Продолжительность : 14 м.
Общий поток : 9979 Кбит/сек
Видео
Идентификатор : 224 (0xE0)
Формат : MPEG Video
Версия формата : Version 2
Профиль формата : Main@Main
Параметр BVOP формата : Да
Параметр матрицы формата : Выборочная
Параметр GOP формата : M=3, N=15
Продолжительность : 14 м.
Битрейт : 9333 Кбит/сек
Максимальный битрейт : 9000 Кбит/сек
Ширина : 720 пикселей
Высота : 576 пикселей
Соотношение сторон : 16:9
Частота кадров : 25,000 кадров/сек
Стандарт вещания : PAL
Цветовое пространство : YUV
Субдискретизация насыщенности : 4:2:0
Битовая глубина : 8 бит
Тип развёртки : Чересстрочная
Порядок развёртки : Верхнее поле первое
Метод сжатия : С потерями
Бит/(Пиксели*Кадры) : 0.900
Размер потока : 957 Мбайт (93%)
Аудио
Идентификатор : 189 (0xBD)-128 (0x80)
Формат : AC-3
Формат/Информация : Audio Coding 3
Расширение режима : CM (complete main)
Параметр Endianness формата : Big
Режим смешивания : DVD-Video
Продолжительность : 14 м.
Вид битрейта : Постоянный
Битрейт : 448 Кбит/сек
Каналы : 6 каналов
Расположение каналов : Front: L C R, Side: L R, LFE
Частота : 48,0 КГц
Битовая глубина : 16 бит
Метод сжатия : С потерями
Задержка видео : -736 мс.
Размер потока : 46,0 Мбайт (4%)
Меню

Скриншоты меню:

Скриншоты:


Время раздачи: 24/7 (до 10 скачавших)

[Цитировать]



Показать сообщения:    

Текущее время: 10-Дек 11:53

Часовой пояс: UTC + 3


Вы не можете начинать темы
Вы не можете отвечать на сообщения
Вы не можете редактировать свои сообщения
Вы не можете удалять свои сообщения
Вы не можете голосовать в опросах
Вы не можете прикреплять файлы к сообщениям
Вы не можете скачивать файлы

!ВНИМАНИЕ!
Сайт не предоставляет электронные версии произведений, а занимается лишь коллекционированием и каталогизацией ссылок, присылаемых и публикуемых на форуме нашими читателями. Если вы являетесь правообладателем какого-либо представленного материала и не желаете, чтобы ссылка на него находилась в нашем каталоге, свяжитесь с нами, и мы незамедлительно удалим ее. Файлы для обмена на трекере предоставлены пользователями сайта, и администрация не несет ответственности за их содержание. Просьба не заливать файлы, защищенные авторскими правами, а также файлы нелегального содержания!