[ Сегодня идет свободное скачивание без начисления Download ]


Статистика раздачи
Нет
 
   
 
Top  
 
 
-«Весёлые» каникулы / Get the Gringo (2012) DVD5
Plan your getaway
- Русское название: «Весёлые» каникулы
Оригинальное название: Get the Gringo
Год выпуска: 2012
Производство: Airborne Productions / Icon Productions [США]
Жанр: Боевик, комедия
Перевод: Дублированный [лицензия]
Субтитры: Вшитые, отключаемые
Язык субтитров: Русский
Режиссер: Адриан Грюнберг
Актеры: Мэл Гибсон, Кевин Эрнандез, Долорес Эредия, Хесус Очоа, Петер Стормаре, Дин Норрис, София Сиснига, Стефани Николь Лемелин, Боб Гантон, Скотт Коэн
Описание фильма:
Мексиканская полиция крадет у американского уголовника крупную сумму денег и сажает его в тюрьму. И все бы ничего, да только он эти деньги тоже в свое время украл у одного очень известного преступника, который начинает искать пропавшие деньги...
Дата мировой премьеры: 15 марта 2012
Дата российской премьеры: 22 марта 2012, «West»
Дата выхода DVD / Blu-Ray релиза: 29 мая 2012, «West Video»

Продолжительность: 01:32:03
Качество видео: DVD5
Видеокодек: MPEG-2
Размер кадра: [email protected] (PAL 16:9)
Битрейт видео: ~6260 kbps, Бит/(Пиксели*Кадры): 0.604
Аудио 1: AC3 5.1, 384 kbps [Русский]
Аудио 2: AC3 5.1, 384 kbps [Украинский]

Дополнительные материалы…

Отсутствуют

DVDInfo…

Title: Весёлые.Каникулы-Get.The.Gringo.(2012).DVD5.nnm-club.ru-y607ce
Size: 4.37 Gb ( 4 578 478,00 KBytes ) - DVD-5
Enabled regions: 1, 2, 3, 4, 5, 6, 7, 8
VTS_01 :
Play Length: 00:00:00
Video: PAL 4:3 (720x576) VBR
VTS_02 :
Play Length: 01:32:03
Video: PAL 16:9 (720x576) VBR, Auto Pan&Scan, Auto Letterboxed
Audio:
Russian (Dolby AC3, 6 ch)
Ukrainian (Dolby AC3, 6 ch)
Subtitles:
Russian

MediaInfo…

Полное имя : G:\!my.nnm-club.ru\Весёлые.Каникулы-Get.The.Gringo.(2012).DVD5.nnm-club.ru-y607ce\VIDEO_TS\VTS_02_2.VOB
Формат : MPEG-PS
Размер файла : 1024 Мбайт
Продолжительность : 19 м.
Режим общего битрейта : Переменный
Общий поток : 7176 Кбит/сек
Видео
Идентификатор : 224 (0xE0)
Формат : MPEG Video
Версия формата : Version 2
Профиль формата : [email protected]
Параметр BVOP формата : Да
Параметр матрицы формата : Выборочная
Продолжительность : 19 м.
Вид битрейта : Переменный
Битрейт : 6265 Кбит/сек
Максимальный битрейт : 8078 Кбит/сек
Ширина : 720 пикселей
Высота : 576 пикселей
Соотношение сторон : 16:9
Частота кадров : 25,000 кадров/сек
Стандарт вещания : PAL
Цветовое пространство : YUV
Субдискретизация насыщенности : 4:2:0
Битовая глубина : 8 бит
Тип развёртки : Чересстрочная
Порядок развёртки : Верхнее поле первое
Метод сжатия : С потерями
Бит/(Пиксели*Кадры) : 0.604
Размер потока : 894 Мбайт (87%)
Аудио #1
Идентификатор : 189 (0xBD)-128 (0x80)
Формат : AC-3
Формат/Информация : Audio Coding 3
Расширение режима : CM (complete main)
Режим смешивания : DVD-Video
Продолжительность : 19 м.
Вид битрейта : Постоянный
Битрейт : 384 Кбит/сек
Каналы : 6 каналов
Расположение каналов : Front: L C R, Side: L R, LFE
Частота : 48,0 КГц
Битовая глубина : 16 бит
Метод сжатия : С потерями
Задержка видео : -408 мс.
Размер потока : 54,8 Мбайт (5%)
Аудио #2
Идентификатор : 189 (0xBD)-131 (0x83)
Формат : AC-3
Формат/Информация : Audio Coding 3
Расширение режима : CM (complete main)
Режим смешивания : DVD-Video
Продолжительность : 19 м.
Вид битрейта : Постоянный
Битрейт : 384 Кбит/сек
Каналы : 6 каналов
Расположение каналов : Front: L C R, Side: L R, LFE
Частота : 48,0 КГц
Битовая глубина : 16 бит
Метод сжатия : С потерями
Задержка видео : -408 мс.
Размер потока : 54,8 Мбайт (5%)
Текст
Идентификатор : 189 (0xBD)-32 (0x20)
Формат : RLE
Формат/Информация : Run-length encoding
Режим смешивания : DVD-Video
Задержка видео : 1 с. 760 мс.
Меню

Изготовление релиза:

Исходник: "Весёлые" каникулы / Get the Gringo (2012) DVD9 [Большое спасибо bog3417]
Удалены: дополнительные материалы, предупреждения и заставки, английская AC3 5.1 и русская DTS 5.1 аудио-дороги.
Видео сжато: конечные титры на 70%, сжатие самого фильма примерно на 12%. Смотрите скриншоты и сэмпл!
Меню: статичное, на русском языке.
Обработка и сжатие: DVD ReMake Pro + DVD Rebuilder + CCE SP2 1.00.01.09 [9 проходов] + Работа с меню (Adobe PhotoShop и MuxMan)

Log-файл DVD-Rebuilder-а:

[14:31:05] Phase I, PREPARATION started.
- DVD-RB v1.28.2
- AVISYNTH 2.5.8.0
- CCE 1.0.1.9 encoder selected.
- "Adaptive Quantizer Matrices" is enabled.
- Source: !!!
- VTS_02: 2 668 598 sectors.
-- Scanning and writing .D2V & .AVS files
-- Processed 138 090 frames.
-- Building .AVS and .ECL files
- Reduction Level for DVD-5: 82,3%
- Overall Bitrate : 5 841Kbs
- Space for Video : 3 938 486KB
- Analyzing VTS_02 for optimal Q factor.
-- TargetSize (sectors):1 998 780
-- Sampling 1392 of 138090 frames.
-- Predicted size (sectors) at Q=18: 1 439 463
-- Predicted size (sectors) at Q=11: 1 722 224
-- Predicted size (sectors) at Q=8: 1 858 314
-- Predicted size (sectors) at Q=7: 1 896 245
-- Predicted size (sectors) at Q=6: 1 930 519
-- Predicted size (sectors) at Q=5: 1 968 519
-- Predicted size (sectors) at Q=4: 2 007 273
- Q Value selected: 4
- Redistributing Final_Q: 4
- HIGH/LOW/TYPICAL Bitrates: 6 757/4 861/5 841 Kbs
[14:42:46] Phase I, PREPARATION completed in 11 minutes.
[15:02:12] Phase II ENCODING started
- Creating M2V for VTS_02 segment 0
- Creating M2V for VTS_02 segment 1
- Creating M2V for VTS_02 segment 2
- Creating M2V for VTS_02 segment 3
- Creating M2V for VTS_02 segment 4
- Creating M2V for VTS_02 segment 5
- Creating M2V for VTS_02 segment 6
- Creating M2V for VTS_02 segment 7
- Creating M2V for VTS_02 segment 8
- Creating M2V for VTS_02 segment 9
- Creating M2V for VTS_02 segment 10
- Creating M2V for VTS_02 segment 11
- Creating M2V for VTS_02 segment 12
- Creating M2V for VTS_02 segment 13
- Creating M2V for VTS_02 segment 14
- Creating M2V for VTS_02 segment 15
[15:38:42] Phase II ENCODING completed in 36 minutes.
[18:47:04] Phase III, REBUILD started.
- Copying IFO, BUP, and unaltered files...
- Processing VTS_02
- Reading/processing TMAP table...
- Rebuilding seg 0 VOBID 1 CELLID 1
- Rebuilding seg 1 VOBID 1 CELLID 2
- Rebuilding seg 2 VOBID 1 CELLID 3
- Rebuilding seg 3 VOBID 1 CELLID 4
- Rebuilding seg 4 VOBID 1 CELLID 5
- Rebuilding seg 5 VOBID 1 CELLID 6
- Rebuilding seg 6 VOBID 1 CELLID 7
- Rebuilding seg 7 VOBID 1 CELLID 8
- Rebuilding seg 8 VOBID 1 CELLID 9
- Rebuilding seg 9 VOBID 1 CELLID 10
- Rebuilding seg 10 VOBID 1 CELLID 11
- Rebuilding seg 11 VOBID 1 CELLID 12
- Rebuilding seg 12 VOBID 1 CELLID 13
- Rebuilding seg 13 VOBID 1 CELLID 14
- Rebuilding seg 14 VOBID 1 CELLID 15
- Rebuilding seg 15 VOBID 1 CELLID 16
- Updating NAVPACKS for VOBID_01
- Updated VTS_C_ADT.
- Updated VTS_VOBU_ADMAP.
- Updated IFO: VTS_02_0.IFO
- Updating TMAP table...
- Correcting VTS Sectors...
[18:52:15] Phase III, REBUILD completed in 5 minutes.
Done.

Скриншоты меню...

Скриншоты:

[Цитировать]



Показать сообщения:    

Текущее время: 06-Дек 13:21

Часовой пояс: UTC + 3


Вы не можете начинать темы
Вы не можете отвечать на сообщения
Вы не можете редактировать свои сообщения
Вы не можете удалять свои сообщения
Вы не можете голосовать в опросах
Вы не можете прикреплять файлы к сообщениям
Вы не можете скачивать файлы

!ВНИМАНИЕ!
Сайт не предоставляет электронные версии произведений, а занимается лишь коллекционированием и каталогизацией ссылок, присылаемых и публикуемых на форуме нашими читателями. Если вы являетесь правообладателем какого-либо представленного материала и не желаете, чтобы ссылка на него находилась в нашем каталоге, свяжитесь с нами, и мы незамедлительно удалим ее. Файлы для обмена на трекере предоставлены пользователями сайта, и администрация не несет ответственности за их содержание. Просьба не заливать файлы, защищенные авторскими правами, а также файлы нелегального содержания!