[ Сегодня идет свободное скачивание без начисления Download ]


Статистика раздачи
Нет
 
   
 
Top  
 
 
-Мастер и Маргарита (1994) BDRip- Русское название: Мастер и Маргарита
Год выпуска: 1994
Производство: Россия
Жанр: Драма, Детектив, Мистика
Продолжительность: 02:03:10
Перевод: Оригинал (Русский)
Режиссер: Юрий Кара
Актеры: Михаил Ульянов, Валентин Гафт, Анастасия Вертинская, Виктор Раков, Александр Филиппенко, Сергей Гармаш, Лев Дуров, Сергей Никоненко, Николай Бурляев, Леонид Куравлёв
Описание фильма:
Действие происходит в 1920—1930-е годы в Москве и в годы жизни Иисуса Христа в Ершалаиме. Мастер с гениальным озарением описал последние дни жизни Спасителя в своем романе о Понтии Пилате, за который поплатился свободой. Его тайная возлюбленная Маргарита готова на сделку с дьяволом, лишь бы спасти Мастера. В это время некто Воланд, посетивший Москву со своей свитой, наводит ужас на обывателей. Но в мире, где укоренилось зло, и засела нечистая сила, проделки сатаны, окрашенные искрометным юмором, оборачиваются возмездием за людские грехи и пороки.

Дата мировой/РФ премьеры: 7 апреля 2011
Дата выхода DVD/Blu-Ray релиза: 3 мая 2011, «Флагман-Трейд»
Качество видео: BDRip [720p]
Видеокодек: MPEG-4 AVC/H.264
Видео: 992x720, ~7777 Кбит/с
Аудио: AC3, 6 ch, 448 Кбит/с [Оригинал, Русский]

MediaInfo:

Общее
Уникальный идентификатор : 212987372587448548327069948263913596528 (0xA03BE038A3C1A00AA9B9F9536675A670)
Полное имя : Master.i.Margarita.1994.BDRip.720p.mkv
Формат : Matroska
Версия формата : Version 2
Размер файла : 7,08 Гбайт
Продолжительность : 2 ч. 3 м.
Общий поток : 8225 Кбит/сек
Дата кодирования : UTC 2011-05-08 04:30:40
Программа кодирования : mkvmerge v4.7.0 ('Just Like You Imagined') сборка от Apr 21 2011 01:13:14
Библиотека кодирования : libebml v1.2.0 + libmatroska v1.1.0
Видео
Идентификатор : 1
Формат : AVC
Формат/Информация : Advanced Video Codec
Профиль формата : High@L4.1
Параметр CABAC формата : Да
Параметр ReFrames формата : 11 кадров
Идентификатор кодека : V_MPEG4/ISO/AVC
Продолжительность : 2 ч. 3 м.
Битрейт : 7777 Кбит/сек
Ширина : 992 пикселя
Высота : 720 пикселей
Соотношение сторон : 1,378
Частота кадров : 24,000 кадра/сек
Цветовое пространство : YUV
Субдискретизация насыщенности : 4:2:0
Битовая глубина : 8 бит
Тип развёртки : Прогрессивная
Бит/(Пиксели*Кадры) : 0.454
Размер потока : 6,55 Гбайт (93%)
Библиотека кодирования : x264 core 114 r1924 08d04a4
Настройки программы : cabac=1 / ref=11 / deblock=1:-3:-3 / analyse=0x3:0x133 / me=umh / subme=10 / psy=1 / psy_rd=1.05:0.10 / mixed_ref=1 / me_range=64 / chroma_me=1 / trellis=2 / 8x8dct=1 / cqm=0 / deadzone=21,11 / fast_pskip=1 / chroma_qp_offset=-3 / threads=9 / sliced_threads=0 / nr=0 / decimate=1 / interlaced=0 / constrained_intra=0 / bframes=13 / b_pyramid=2 / b_adapt=2 / b_bias=0 / direct=3 / weightb=1 / open_gop=0 / weightp=2 / keyint=250 / keyint_min=24 / scenecut=40 / intra_refresh=0 / rc_lookahead=60 / rc=2pass / mbtree=1 / bitrate=7777 / ratetol=1.0 / qcomp=0.70 / qpmin=0 / qpmax=69 / qpstep=4 / cplxblur=20.0 / qblur=0.5 / vbv_maxrate=50000 / vbv_bufsize=62500 / nal_hrd=none / ip_ratio=1.40 / aq=1:0.90
Default : Нет
Forced : Нет
Аудио
Идентификатор : 2
Формат : AC-3
Формат/Информация : Audio Coding 3
Расширение режима : CM (complete main)
Идентификатор кодека : A_AC3
Продолжительность : 2 ч. 3 м.
Вид битрейта : Постоянный
Битрейт : 448 Кбит/сек
Каналы : 6 каналов
Расположение каналов : Front: L C R, Side: L R, LFE
Частота : 48,0 КГц
Битовая глубина : 16 бит
Метод сжатия : С потерями
Размер потока : 395 Мбайт (5%)
Язык : Russian
Default : Да
Forced : Да
Скриншоты:


Время раздачи: Обычно с 19:00 до 00:00

[Цитировать]



Показать сообщения:    

Текущее время: 10-Дек 08:06

Часовой пояс: UTC + 3


Вы не можете начинать темы
Вы не можете отвечать на сообщения
Вы не можете редактировать свои сообщения
Вы не можете удалять свои сообщения
Вы не можете голосовать в опросах
Вы не можете прикреплять файлы к сообщениям
Вы не можете скачивать файлы

!ВНИМАНИЕ!
Сайт не предоставляет электронные версии произведений, а занимается лишь коллекционированием и каталогизацией ссылок, присылаемых и публикуемых на форуме нашими читателями. Если вы являетесь правообладателем какого-либо представленного материала и не желаете, чтобы ссылка на него находилась в нашем каталоге, свяжитесь с нами, и мы незамедлительно удалим ее. Файлы для обмена на трекере предоставлены пользователями сайта, и администрация не несет ответственности за их содержание. Просьба не заливать файлы, защищенные авторскими правами, а также файлы нелегального содержания!