[ Сегодня идет свободное скачивание без начисления Download ]


Статистика раздачи
Нет
 
   
 
Top  
 
 
-Ограбление казино / Killing Them Softly (2012) BDRemux-«In America you're on your own»- Русское название: Ограбление казино
Оригинальное название: Killing Them Softly
Год выпуска: 2012
Жанр: Триллер, Драма, Криминал
Описание фильма:
Во время подпольной игры в покер совершено ограбление, и угроза повисла над всем воровским сообществом. Воротилы мафии рассчитывают, что Джеки Коган найдет виновных. Однако, вращаясь среди нерешительных заказчиков, жуликов-ростовщиков, усталых убийц и тех, кто спланировал «дело», даже специалисту трудно сохранить контроль над ситуацией…
Режиссер: Эндрю Доминик
Актеры: Брэд Питт, Ричард Дженкинс, Джеймс Гандольфини, Рэй Лиотта, Скут МакНэйри, Бен Мендельсон, Винсент Куратола, Тревор Лонг, Макс Каселла, Сэм Шепард
Продолжительность: 01:37:06
Перевод: Дублированный, Авторский одноголосый закадровый (ВНИМАНИЕ! Ненормативная лексика)
Язык субтитров: Русский (2 варианта), Английский


Рейтинг R - Детям до 17 лет обязательно присутствие родителей-Дата мировой премьеры: 22 мая 2012
Дата российской премьеры: 18 октября 2012, «UPI»
Дата выхода DVD релиза: 22 января 2013, «Флагман-Трейд»-Видеокодек: MPEG-4 AVC/H.264
Битрейт видео: ~19938 kbps
Размер кадра: 1920 x 1080
Качество видео: BDRemux
Аудио 1: Русский, AC3 5.1, 448 kbps, 48 kHz (Дубляж)
Аудио 2: Русский, AC3 5.1, 384 kbps, 48 kHz (AVO, М.Чадов)
Аудио 3: Английский, DTS-HD MA 5.1, 3312 kbps, 48 kHz (Оригинал)-Сэмпл: Ссылка-

Знаете ли вы, что...

• Зои Салдана рассматривалась на одну из ролей.
• Марк Руффало, Хавьер Бардем и Сэм Рокуэлл были рассмотрены в качестве кандидатов на различные роли.
-

MediaInfo:

Общее
Уникальный идентификатор : 251193203572981941918326099050538511060 (0xBCFA0D1F4B90952B97A284947CA8AAD4)
Полное имя : D:\Films\Killing.Them.Softly.2012.1080p.BDRemux.mkv
Формат : Matroska
Версия формата : Version 2
Размер файла : 16,3 Гбайт
Продолжительность : 1 ч. 37 м.
Режим общего битрейта : Переменный
Общий поток : 24,1 Мбит/сек
Дата кодирования : UTC 2013-01-16 08:31:40
Программа кодирования : mkvmerge v5.2.0 ('I can't explain') built on Dec 18 2011 18:12:03
Библиотека кодирования : libebml v1.2.3 + libmatroska v1.3.0
Видео
Идентификатор : 1
Формат : AVC
Формат/Информация : Advanced Video Codec
Профиль формата : High@L4.1
Параметр CABAC формата : Да
Параметр ReFrames формата : 4 кадра
Параметр GOP формата : M=3, N=24
Идентификатор кодека : V_MPEG4/ISO/AVC
Продолжительность : 1 ч. 37 м.
Вид битрейта : Переменный
Битрейт : 20,0 Мбит/сек
Максимальный битрейт : 35,0 Мбит/сек
Ширина : 1920 пикселей
Высота : 1080 пикселей
Соотношение сторон : 16:9
Частота кадров : 24,000 кадра/сек
Стандарт вещания : NTSC
Цветовое пространство : YUV
Субдискретизация насыщенности : 4:2:0
Битовая глубина : 8 бит
Тип развёртки : Прогрессивная
Бит/(Пиксели*Кадры) : 0.403
Размер потока : 13,6 Гбайт (83%)
Язык : English
Default : Да
Forced : Нет
Основные цвета : BT.709-5, BT.1361, IEC 61966-2-4, SMPTE RP177
Характеристики трансфера : BT.709-5, BT.1361
Коэффициенты матрицы : BT.709-5, BT.1361, IEC 61966-2-4 709, SMPTE RP177
Аудио #1
Идентификатор : 2
Формат : AC-3
Формат/Информация : Audio Coding 3
Расширение режима : CM (complete main)
Идентификатор кодека : A_AC3
Продолжительность : 1 ч. 37 м.
Вид битрейта : Постоянный
Битрейт : 448 Кбит/сек
Каналы : 6 каналов
Расположение каналов : Front: L C R, Side: L R, LFE
Частота : 48,0 КГц
Битовая глубина : 16 бит
Метод сжатия : С потерями
Размер потока : 312 Мбайт (2%)
Заголовок : DUB R5
Язык : Russian
Default : Да
Forced : Нет
Аудио #2
Идентификатор : 3
Формат : AC-3
Формат/Информация : Audio Coding 3
Расширение режима : CM (complete main)
Идентификатор кодека : A_AC3
Продолжительность : 1 ч. 37 м.
Вид битрейта : Постоянный
Битрейт : 384 Кбит/сек
Каналы : 6 каналов
Расположение каналов : Front: L C R, Side: L R, LFE
Частота : 48,0 КГц
Битовая глубина : 16 бит
Метод сжатия : С потерями
Размер потока : 267 Мбайт (2%)
Заголовок : AVO М.Чадов
Язык : Russian
Default : Нет
Forced : Нет
Аудио #3
Идентификатор : 4
Формат : DTS
Формат/Информация : Digital Theater Systems
Профиль формата : MA / Core
Идентификатор кодека : A_DTS
Продолжительность : 1 ч. 37 м.
Вид битрейта : Переменный
Битрейт : 2707 Кбит/сек / 1510 Кбит/сек
Каналы : 6 каналов
Расположение каналов : Front: L C R, Side: L R, LFE
Частота : 48,0 КГц
Битовая глубина : 24 бит
Метод сжатия : Без потерь / Lossy
Заголовок : Lossless
Язык : English
Default : Нет
Forced : Нет
Текст #1
Идентификатор : 5
Формат : UTF-8
Идентификатор кодека : S_TEXT/UTF8
Идентификатор кодека/Информация : UTF-8 Plain Text
Заголовок : 1
Язык : Russian
Default : Нет
Forced : Нет
Текст #2
Идентификатор : 6
Формат : UTF-8
Идентификатор кодека : S_TEXT/UTF8
Идентификатор кодека/Информация : UTF-8 Plain Text
Заголовок : 2
Язык : Russian
Default : Нет
Forced : Нет
Текст #3
Идентификатор : 7
Формат : UTF-8
Идентификатор кодека : S_TEXT/UTF8
Идентификатор кодека/Информация : UTF-8 Plain Text
Язык : English
Default : Нет
Forced : Нет
Меню
00:00:00.000 : en:Chapter 00
00:11:09.208 : en:Chapter 01
00:23:32.041 : en:Chapter 02
00:35:21.583 : en:Chapter 03
00:46:29.916 : en:Chapter 04
00:58:23.750 : en:Chapter 05
01:10:29.916 : en:Chapter 06
01:23:16.125 : en:Chapter 07
-Скриншоты:
-Время раздачи: С 8:00 до 22:00 до 5 скачавших

[Цитировать]



Показать сообщения:    

Текущее время: 08-Дек 19:00

Часовой пояс: UTC + 3


Вы не можете начинать темы
Вы не можете отвечать на сообщения
Вы не можете редактировать свои сообщения
Вы не можете удалять свои сообщения
Вы не можете голосовать в опросах
Вы не можете прикреплять файлы к сообщениям
Вы не можете скачивать файлы

!ВНИМАНИЕ!
Сайт не предоставляет электронные версии произведений, а занимается лишь коллекционированием и каталогизацией ссылок, присылаемых и публикуемых на форуме нашими читателями. Если вы являетесь правообладателем какого-либо представленного материала и не желаете, чтобы ссылка на него находилась в нашем каталоге, свяжитесь с нами, и мы незамедлительно удалим ее. Файлы для обмена на трекере предоставлены пользователями сайта, и администрация не несет ответственности за их содержание. Просьба не заливать файлы, защищенные авторскими правами, а также файлы нелегального содержания!