[ Сегодня идет свободное скачивание без начисления Download ]


Статистика раздачи
Нет
 
   
 
Top  
 
 
Долг / Karzzzz (2008) DVDRip - Производство: Индия
Жанр: Боевик, Музыкальный, Драма
Режиссер: Сатиш Каушик
Актеры: Химеш Решаммия, Урмила Матондкар, Швета Кумар, Дино Мореа, Радж Баббар, Дэнни Дензонгпа, Гульшан Гровер, Рохини Хаттангди, Асрани, Смита Бансал
Описание:
Главный герой Монти — успешный рок-музыкант, живущий в Южной Африке. Он очень популярен во всем мире. На одном концерте он знакомится с девушкой Тиной и влюбляется в нее с первого взгляда. Во время одного выступления Монти начинает играть мелодию и внезапно входит в транс, у него начинаются видения. Он видит особняк, храм, красивую девушку… Позже он разыскивает этот дом и узнает, что он принадлежал Рави Верма, который погиб в результате несчастного случая. Монти приследуют новые видения, теперь он видит самого себя в образе Рави Верма. В той чужой жизни у него есть мать, сестра, любимая жена по имени Камини… Пытаясь разобраться в своих видениях, Монти узнает, что Рави Варма не просто погиб, а был убит и коварный убица до сих пор на свободе…

Возраст: этот продукт не был классифицирован
Рейтинг MPAA: этот продукт не был классифицирован
Мировая премьера : 17 октября 2008
Продолжительность: 02:17:28
Качество видео: DVDRip СЭМПЛ
Перевод: Профессиональный многоголосый - Zee TV
Реклама: рекламы нет
Видео: Xvid, 704x288, ~1222 kbps
Аудио: AC3, 2 ch, 192 kbps

Mediainfo:

Общее
Полное имя                               : D:\Karzzzz.2008.1400Mb.DVDRip.avi
Формат                                   : AVI
Формат/Информация                        : Audio Video Interleave
Размер файла                             : 1,37 Гбайт
Продолжительность                        : 2 ч. 17 м.
Общий поток                              : 1426 Кбит/сек
Программа кодирования                    : VirtualDubMod 1.5.10.2 (build 2540/release)
Библиотека кодирования                   : VirtualDubMod build 2540/release
Видео
Идентификатор                            : 0
Формат                                   : MPEG-4 Visual
Профиль формата                          : Advanced [email protected]
Параметр BVOP формата                    : 2
Параметр QPel формата                    : Нет
Параметр GMC формата                     : Без точки перехода
Параметр матрицы формата                 : Default (H.263)
Режим смешивания                         : Сжатый битовый поток
Идентификатор кодека                     : XVID
Идентификатор кодека/Подсказка           : XviD
Продолжительность                        : 2 ч. 17 м.
Битрейт                                  : 1222 Кбит/сек
Ширина                                   : 704 пикселя
Высота                                   : 288 пикселей
Соотношение сторон                       : 2,40:1
Частота кадров                           : 29,970 (29970/1000) кадров/сек
Цветовое пространство                    : YUV
Субдискретизация насыщенности            : 4:2:0
Битовая глубина                          : 8 бит
Тип развёртки                            : Прогрессивная
Метод сжатия                             : С потерями
Бит/(Пиксели*Кадры)                      : 0.201
Размер потока                            : 1,17 Гбайт (86%)
Библиотека кодирования                   : XviD 1.2.1 (UTC 2008-12-04)
Аудио
Идентификатор                            : 1
Формат                                   : AC-3
Формат/Информация                        : Audio Coding 3
Расширение режима                        : CM (complete main)
Параметр Endianness формата              : Big
Идентификатор кодека                     : 2000
Продолжительность                        : 2 ч. 17 м.
Вид битрейта                             : Постоянный
Битрейт                                  : 192 Кбит/сек
Каналы                                   : 2 канала
Расположение каналов                     : Front: L R
Частота                                  : 48,0 КГц
Частота кадров                           : 31,250 кадров/сек (1536 spf)
Метод сжатия                             : С потерями
Размер потока                            : 189 Мбайт (13%)
Выравнивание                             : Разделение по промежуткам
Продолжительность промежутка             : 33  мс. (1,00 видеокадр)
Время предзагрузки промежутка            : 500  мс.
Скриншоты:

[Цитировать]



Показать сообщения:    

Текущее время: 05-Дек 13:37

Часовой пояс: UTC + 3


Вы не можете начинать темы
Вы не можете отвечать на сообщения
Вы не можете редактировать свои сообщения
Вы не можете удалять свои сообщения
Вы не можете голосовать в опросах
Вы не можете прикреплять файлы к сообщениям
Вы не можете скачивать файлы

!ВНИМАНИЕ!
Сайт не предоставляет электронные версии произведений, а занимается лишь коллекционированием и каталогизацией ссылок, присылаемых и публикуемых на форуме нашими читателями. Если вы являетесь правообладателем какого-либо представленного материала и не желаете, чтобы ссылка на него находилась в нашем каталоге, свяжитесь с нами, и мы незамедлительно удалим ее. Файлы для обмена на трекере предоставлены пользователями сайта, и администрация не несет ответственности за их содержание. Просьба не заливать файлы, защищенные авторскими правами, а также файлы нелегального содержания!