[ Сегодня идет свободное скачивание без начисления Download ]


Статистика раздачи
Нет
 
   
 
Top  
 
 
-Чужой 2: На Земле / Alien 2: On Earth / Alien 2 - Sulla terra (1980) BDRemux- Русское название: Чужой 2: На Земле
Оригинальное название: Alien 2: On Earth
Страна: Италия
Студия: GPS
Год выпуска: 1980
Жанр: Ужасы, Фантастика-Описание фильма:
Модуль с астронавтами, после неудачной экспедиции на орбиту приземляется в океане, но спасатели находят лишь обезображенные труппы и существ, сделавших это. Группа спелеологов борется с монстрами в подземных пещерах, надеясь на спасение и возвращение на поверхно-Режиссер: Чиро Ипполито / Ciro Ippolito
Актеры: Белинда Мэйн, Марк Бодин, Роберто Баррези, Бенни Олдрич, Микеле Соави, Джуди Перрин, Дон Паркинсон, Клаудио Фаланга, Фабриция Кастаньоли, Луиджи Диберти и др-Продолжительность: 01:24:27
Перевод: Одноголосый закадровый |Вячеслав Котов| + Одноголосый закадровый |хохол|
Оригинальная аудиодорожка: Английская
Субтитры: нет- -
Рейтинг R - Детям до 17 лет обязательно присутствие родителей-Видеокодек: MPEG-4 AVC/H.264
Битрейт видео: ~31626 kbps
Размер кадра: 1920x1080p
Качество видео: BDRemux-Аудио 1: Русский / Dolby Digital Audio / 192 kbps / 2.0 / 48 kHz / 16-bit | Вячеслав Котов
Аудио 2: Русский / Dolby Digital Audio / 192 kbps / 2.0 / 48 kHz / 16-bit | хохол
Аудио 3: English / DTS-HD Master Audio / 1662 kbps / 2.0 / 48 kHz / 24-bit (DTS Core: 2.0 / 48 kHz / 1509 kbps / 24-bit)
Навигация по главам: да-Скриншоты:
-

MediaInfo:

General
Complete name : E:\Чужой 2 На Земле.mkv
Format : Matroska
File size : 19.9 GiB
Duration : 1h 24mn
Overall bit rate : 33.7 Mbps
Encoded date : UTC 2010-02-22 21:41:31
Writing application : mkvmerge v5.9.0 ('On The Loose') built on Dec 9 2012 15:37:01
Writing library : libebml v1.3.0 + libmatroska v1.4.0
Video
ID : 1
Format : AVC
Format/Info : Advanced Video Codec
Format profile : [email protected]
Format settings, CABAC : Yes
Format settings, ReFrames : 4 frames
Muxing mode : Container [email protected]
Codec ID : V_MPEG4/ISO/AVC
Duration : 1h 24mn
Width : 1 920 pixels
Height : 1 080 pixels
Display aspect ratio : 16:9
Frame rate : 24.000 fps
Standard : NTSC
Resolution : 8 bits
Colorimetry : 4:2:0
Scan type : Progressive
Color primaries : BT.709-5, BT.1361, IEC 61966-2-4, SMPTE RP177
Transfer characteristics : BT.709-5, BT.1361
Matrix coefficients : BT.709-5, BT.1361, IEC 61966-2-4 709, SMPTE RP177
Audio #1
ID : 2
Format : AC-3
Format/Info : Audio Coding 3
Codec ID : A_AC3
Duration : 1h 24mn
Bit rate mode : Constant
Bit rate : 192 Kbps
Channel(s) : 2 channels
Channel positions : L R
Sampling rate : 48.0 KHz
Stream size : 116 MiB (1%)
Title : Авторский (одноголосый закадровый) Вячеслав Котов
Language : Russian
Audio #2
ID : 3
Format : AC-3
Format/Info : Audio Coding 3
Codec ID : A_AC3
Duration : 1h 24mn
Bit rate mode : Constant
Bit rate : 192 Kbps
Channel(s) : 2 channels
Channel positions : L R
Sampling rate : 48.0 KHz
Stream size : 116 MiB (1%)
Title : Одноголосый закадровый "хохол"
Language : Russian
Audio #3
ID : 4
Format : DTS
Format/Info : Digital Theater Systems
Format profile : MA
Codec ID : A_DTS
Duration : 1h 24mn
Bit rate mode : Variable
Channel(s) : 2 channels
Channel positions : Front: L, R
Sampling rate : 48.0 KHz
Resolution : 24 bits
Title : Оригинал
Menu
00:00:00.000 : en:1
00:10:51.958 : en:2
00:18:50.375 : en:3
00:27:16.583 : en:4
00:36:01.833 : en:5
00:46:02.625 : en:6
00:52:42.500 : en:7
01:02:28.125 : en:8
01:09:10.708 : en:9
01:20:39.083 : en:10
-Время раздачи: 24/7 - круглосуточно
Спасибо - это прекрасное словo, но если Вам реально хочется меня отблагодарить, оставайтесь на раздаче как можно дольше, и тогда наша благодарность будет обоюдной!!!!

[Цитировать]



Показать сообщения:    

Текущее время: 06-Дек 17:13

Часовой пояс: UTC + 3


Вы не можете начинать темы
Вы не можете отвечать на сообщения
Вы не можете редактировать свои сообщения
Вы не можете удалять свои сообщения
Вы не можете голосовать в опросах
Вы не можете прикреплять файлы к сообщениям
Вы не можете скачивать файлы

!ВНИМАНИЕ!
Сайт не предоставляет электронные версии произведений, а занимается лишь коллекционированием и каталогизацией ссылок, присылаемых и публикуемых на форуме нашими читателями. Если вы являетесь правообладателем какого-либо представленного материала и не желаете, чтобы ссылка на него находилась в нашем каталоге, свяжитесь с нами, и мы незамедлительно удалим ее. Файлы для обмена на трекере предоставлены пользователями сайта, и администрация не несет ответственности за их содержание. Просьба не заливать файлы, защищенные авторскими правами, а также файлы нелегального содержания!