[ Сегодня идет свободное скачивание без начисления Download ]


Статистика раздачи
Нет
 
   
 
Top  
 
 
Мечта по-итальянски / Il grande sogno (2009) DVDRip-AVC Информация о фильме
Название: Мечта по-итальянски
Оригинальное название: Il grande sogno
Год выхода: 2009
Жанр: Драма
Режиссер: Микеле Плачидо / Michele Placido
В ролях: Риккардо Скамарчио, Лаура Моранте, Микеле Плачидо, Жазмин Тринка, Лука Арджентеро, Федерика Винченти, Оттавия Пикколо, Джулия Микелини, Сильвио Орландо, Бренно Плачидо
О фильме:
На фоне зарождения протестного студенческого движения в Италии в связи с такими мировыми потрясениями как война во Вьетнаме, убийство Кеннеди, Мартина Лютера Кинга, смерть Че Гевары, разворачивается любовная история. Ее главные герои — двое молодых людей — харизматичный идейный вдохновитель протестного движения в римском университете, симпатичный полицейский, мечтающий стать актером, и студентка из хорошей благополучной семьи.

Страна: Италия, Франция
Студия: Taodue Film, Babe Film, Medusa Film
Продолжительность: 01:41:28.040
Перевод: Профессиональный (многоголосый закадровый) Первый канал
Профессиональный (двухголосый закадровый) НТВ+
Файл
Кодек: h.264
Качество: DVDRip-AVC Исходник R2 Medusa, Италия
Видео: 712x432 (2.35:1) @ 1021x432, 25.000 fps, AVC, ~1608 Kbps, 0.209 bits/pixel
Звук:
Русский, 48.0 KHz, AC3, 2 ch, 192 Kbps Первый Канал
Русский, 48.0 KHz, AC3, 2 ch, 192 Kbps НТВ+
Итальянский, 48.0 KHz, AC3, 6 ch, 448 Kbps
Субтитры:
Итальянские, VobSub
Английские, VobSub
Французские, VobSub

MI

Общее
Уникальный идентификатор : 171187341395844265010492359974579201179 (0x80C97B9188D2BB139664620FCBF1E49B)
Полное имя : D:FILMSMechta_po_italianski.2009.DVDRip-AVC.mkv
Формат : Matroska
Версия формата : Version 4 / Version 2
Размер файла : 1,73 Гбайт
Продолжительность : 1 ч. 41 м.
Общий поток : 2446 Кбит/сек
Дата кодирования : UTC 2016-09-25 15:05:43
Программа кодирования : mkvmerge v9.4.2 ('So High') 64bit
Библиотека кодирования : libebml v1.3.4 + libmatroska v1.4.5
Видео
Идентификатор : 1
Формат : AVC
Формат/Информация : Advanced Video Codec
Профиль формата : High@L4.1
Параметр CABAC формата : Да
Параметр ReFrames формата : 11 кадров
Идентификатор кодека : V_MPEG4/ISO/AVC
Продолжительность : 1 ч. 41 м.
Битрейт : 1608 Кбит/сек
Ширина : 712 пикселей
Высота : 432 пикселя
Соотношение сторон : 2,35:1
Соотношение сторон в оригинале : 2,35:1
Режим частоты кадров : Постоянный
Частота кадров : 25,000 кадров/сек
Цветовое пространство : YUV
Субдискретизация насыщенности : 4:2:0
Битовая глубина : 8 бит
Тип развёртки : Прогрессивная
Бит/(Пиксели*Кадры) : 0.209
Размер потока : 1,14 Гбайт (66%)
Библиотека кодирования : x264 core 148 r2638 7599210
Настройки программы : cabac=1 / ref=11 / deblock=1:0:0 / analyse=0x3:0x133 / me=umh / subme=11 / psy=1 / psy_rd=1.10:0.15 / mixed_ref=1 / me_range=48 / chroma_me=1 / trellis=2 / 8x8dct=1 / cqm=0 / deadzone=21,11 / fast_pskip=0 / chroma_qp_offset=-3 / threads=8 / lookahead_threads=2 / sliced_threads=0 / nr=0 / decimate=0 / interlaced=0 / bluray_compat=0 / constrained_intra=0 / bframes=10 / b_pyramid=2 / b_adapt=2 / b_bias=0 / direct=3 / weightb=1 / open_gop=0 / weightp=2 / keyint=250 / keyint_min=25 / scenecut=40 / intra_refresh=0 / rc_lookahead=60 / rc=2pass / mbtree=0 / bitrate=1608 / ratetol=1.0 / qcomp=0.60 / qpmin=0 / qpmax=69 / qpstep=4 / cplxblur=20.0 / qblur=0.5 / vbv_maxrate=40000 / vbv_bufsize=50000 / nal_hrd=none / filler=0 / ip_ratio=1.40 / pb_ratio=1.30 / aq=1:1.00
Default : Нет
Forced : Нет
Цветовой диапазон : Limited
Коэффициенты матрицы : BT.601
Аудио #1
Идентификатор : 2
Формат : AC-3
Формат/Информация : Audio Coding 3
Расширение режима : CM (complete main)
Параметр Endianness формата : Big
Идентификатор кодека : A_AC3
Продолжительность : 1 ч. 41 м.
Вид битрейта : Постоянный
Битрейт : 192 Кбит/сек
Каналы : 2 канала
Расположение каналов : Front: L R
Частота : 48,0 КГц
Частота кадров : 31,250 кадров/сек (1536 spf)
Метод сжатия : С потерями
Размер потока : 139 Мбайт (8%)
Заголовок : Perviy_Kanal
Язык : Russian
Default : Да
Forced : Нет
Аудио #2
Идентификатор : 3
Формат : AC-3
Формат/Информация : Audio Coding 3
Расширение режима : CM (complete main)
Параметр Endianness формата : Big
Идентификатор кодека : A_AC3
Продолжительность : 1 ч. 41 м.
Вид битрейта : Постоянный
Битрейт : 192 Кбит/сек
Каналы : 2 канала
Расположение каналов : Front: L R
Частота : 48,0 КГц
Частота кадров : 31,250 кадров/сек (1536 spf)
Метод сжатия : С потерями
Размер потока : 139 Мбайт (8%)
Заголовок : NTV+
Язык : Russian
Default : Нет
Forced : Нет
Аудио #3
Идентификатор : 4
Формат : AC-3
Формат/Информация : Audio Coding 3
Расширение режима : CM (complete main)
Параметр Endianness формата : Big
Идентификатор кодека : A_AC3
Продолжительность : 1 ч. 41 м.
Вид битрейта : Постоянный
Битрейт : 448 Кбит/сек
Каналы : 6 каналов
Расположение каналов : Front: L C R, Side: L R, LFE
Частота : 48,0 КГц
Частота кадров : 31,250 кадров/сек (1536 spf)
Метод сжатия : С потерями
Размер потока : 325 Мбайт (18%)
Язык : Italian
Default : Нет
Forced : Нет
Текст #1
Идентификатор : 5
Формат : VobSub
Режим смешивания : zlib
Идентификатор кодека : S_VOBSUB
Идентификатор кодека/Информация : Picture based subtitle format used on DVDs
Продолжительность : 1 ч. 40 м.
Битрейт : 1929 бит/сек
Count of elements : 1297
Размер потока : 1,39 Мбайт (0%)
Язык : Italian
Default : Нет
Forced : Нет
Текст #2
Идентификатор : 6
Формат : VobSub
Режим смешивания : zlib
Идентификатор кодека : S_VOBSUB
Идентификатор кодека/Информация : Picture based subtitle format used on DVDs
Продолжительность : 1 ч. 36 м.
Битрейт : 1337 бит/сек
Count of elements : 1095
Размер потока : 944 Кбайт (0%)
Язык : English
Default : Нет
Forced : Нет
Текст #3
Идентификатор : 7
Формат : VobSub
Режим смешивания : zlib
Идентификатор кодека : S_VOBSUB
Идентификатор кодека/Информация : Picture based subtitle format used on DVDs
Продолжительность : 1 ч. 36 м.
Битрейт : 1412 бит/сек
Count of elements : 1099
Размер потока : 998 Кбайт (0%)
Язык : French
Default : Нет
Forced : Нет
Меню
00:00:00.000 : en:Chapter 01
00:03:05.760 : en:Chapter 02
00:07:00.960 : en:Chapter 03
00:13:02.880 : en:Chapter 04
00:21:57.120 : en:Chapter 05
00:24:32.160 : en:Chapter 06
00:29:12.000 : en:Chapter 07
00:34:00.000 : en:Chapter 08
00:42:55.200 : en:Chapter 09
00:51:55.200 : en:Chapter 10
00:54:44.160 : en:Chapter 11
00:57:22.080 : en:Chapter 12
01:01:12.000 : en:Chapter 13
01:03:39.360 : en:Chapter 14
01:09:20.160 : en:Chapter 15
01:11:14.880 : en:Chapter 16
01:15:01.920 : en:Chapter 17
01:18:49.920 : en:Chapter 18
01:22:29.760 : en:Chapter 19
01:31:29.280 : en:Chapter 20
01:35:47.040 : en:Chapter 21

Скриншоты

[Цитировать]



Показать сообщения:    

Текущее время: 09-Дек 22:24

Часовой пояс: UTC + 3


Вы не можете начинать темы
Вы не можете отвечать на сообщения
Вы не можете редактировать свои сообщения
Вы не можете удалять свои сообщения
Вы не можете голосовать в опросах
Вы не можете прикреплять файлы к сообщениям
Вы не можете скачивать файлы

!ВНИМАНИЕ!
Сайт не предоставляет электронные версии произведений, а занимается лишь коллекционированием и каталогизацией ссылок, присылаемых и публикуемых на форуме нашими читателями. Если вы являетесь правообладателем какого-либо представленного материала и не желаете, чтобы ссылка на него находилась в нашем каталоге, свяжитесь с нами, и мы незамедлительно удалим ее. Файлы для обмена на трекере предоставлены пользователями сайта, и администрация не несет ответственности за их содержание. Просьба не заливать файлы, защищенные авторскими правами, а также файлы нелегального содержания!