[ Сегодня идет свободное скачивание без начисления Download ]


Статистика раздачи
Скачал: [ 1 ]
 
   
 
Top  
 
 
Свобода - тоже хорошо / Anche libero va bene (2006) DVDRip-AVC Информация о фильме
Название: Свобода - тоже хорошо
Оригинальное название: Anche libero va bene
Год выхода: 2006
Жанр: Драма
Режиссер: Ким Росси Стюарт / Kim Rossi Stuart
В ролях: Алессандро Мораче, Ким Росси Стюарт, Барбора Бобулова, Марта Нобили, Пьетро Де Силва, Роберта Паладини, Себастиано Тирабоски, Франческо Бенедетто, Роберта Лена, Стефано Бусиривичи
О фильме:
Одиннадцатилетний Томми живет со своим отцом Ренато и сестрой Виолой, которая при всякой возможности подтрунивает над ним, но все же служит надежной эмоциональной опорой и Томми, и его отцу. Жизнь, общество, отношения между людьми Ренато воспринимает как игру, где он должен победить. Именно так он пытается воспитать сына. Несмотря на неизбежные трудности, им хорошо втроем. Неожиданное возвращение Стефании, матери семейства, которая, как выясняется, уже неоднократно уходила из дома, нарушает привычное течение жизни.

Страна: Италия
Студия: Palomar, Rai Cinema
Продолжительность: 01:44:09.040
Перевод: Профессиональный (многоголосый, закадровый) R5
Файл
Кодек: h.264
Качество: DVDRip-AVC Источник R2
Видео: 720x544 (1.85:1) @ 1017x544, 25.000 fps, AVC, ~1496 Kbps, 0.153 bits/pixel
Звук:
Русский, 48.0 KHz, AC3, 6 ch, 384 Kbps
Итальянский, 48.0 KHz, AC3, 6 ch, 448 Kbps
Субтитры:
Голландские, VobSub
Французские, VobSub
Английские, VobSub
Русские,SRT(UTF-8)

MI

Общее
Уникальный идентификатор : 179488759021133941605025740274746196692 (0x8708470EB1CC5887846D1AC2131F02D4)
Полное имя : D:FILMSSvoboda_tozhe_horosho.2006.DVDRip-AVC.mkv
Формат : Matroska
Версия формата : Version 4 / Version 2
Размер файла : 1,70 Гбайт
Продолжительность : 1 ч. 44 м.
Общий поток : 2334 Кбит/сек
Дата кодирования : UTC 2016-09-23 18:53:20
Программа кодирования : mkvmerge v9.4.2 ('So High') 64bit
Библиотека кодирования : libebml v1.3.4 + libmatroska v1.4.5
Видео
Идентификатор : 1
Формат : AVC
Формат/Информация : Advanced Video Codec
Профиль формата : [email protected]
Параметр CABAC формата : Да
Параметр ReFrames формата : 11 кадров
Идентификатор кодека : V_MPEG4/ISO/AVC
Продолжительность : 1 ч. 44 м.
Битрейт : 1496 Кбит/сек
Ширина : 720 пикселей
Высота : 544 пикселя
Соотношение сторон : 1,85:1
Режим частоты кадров : Постоянный
Частота кадров : 25,000 кадров/сек
Цветовое пространство : YUV
Субдискретизация насыщенности : 4:2:0
Битовая глубина : 8 бит
Тип развёртки : Прогрессивная
Бит/(Пиксели*Кадры) : 0.153
Размер потока : 1,09 Гбайт (64%)
Библиотека кодирования : x264 core 148 r2638 7599210
Настройки программы : cabac=1 / ref=11 / deblock=1:0:0 / analyse=0x3:0x133 / me=umh / subme=11 / psy=1 / psy_rd=1.10:0.15 / mixed_ref=1 / me_range=48 / chroma_me=1 / trellis=2 / 8x8dct=1 / cqm=0 / deadzone=21,11 / fast_pskip=0 / chroma_qp_offset=-3 / threads=8 / lookahead_threads=1 / sliced_threads=0 / nr=0 / decimate=0 / interlaced=0 / bluray_compat=0 / constrained_intra=0 / bframes=6 / b_pyramid=2 / b_adapt=2 / b_bias=0 / direct=3 / weightb=1 / open_gop=0 / weightp=2 / keyint=250 / keyint_min=25 / scenecut=40 / intra_refresh=0 / rc_lookahead=60 / rc=2pass / mbtree=0 / bitrate=1496 / ratetol=1.0 / qcomp=0.60 / qpmin=0 / qpmax=69 / qpstep=4 / cplxblur=20.0 / qblur=0.5 / vbv_maxrate=40000 / vbv_bufsize=50000 / nal_hrd=none / filler=0 / ip_ratio=1.40 / pb_ratio=1.30 / aq=1:1.00
Default : Нет
Forced : Нет
Цветовой диапазон : Limited
Коэффициенты матрицы : BT.601
Аудио #1
Идентификатор : 2
Формат : AC-3
Формат/Информация : Audio Coding 3
Расширение режима : CM (complete main)
Параметр Endianness формата : Big
Идентификатор кодека : A_AC3
Продолжительность : 1 ч. 44 м.
Вид битрейта : Постоянный
Битрейт : 384 Кбит/сек
Каналы : 6 каналов
Расположение каналов : Front: L C R, Side: L R, LFE
Частота : 48,0 КГц
Частота кадров : 31,250 кадров/сек (1536 spf)
Метод сжатия : С потерями
Размер потока : 286 Мбайт (16%)
Язык : Russian
Default : Да
Forced : Нет
Аудио #2
Идентификатор : 3
Формат : AC-3
Формат/Информация : Audio Coding 3
Расширение режима : CM (complete main)
Параметр Endianness формата : Big
Идентификатор кодека : A_AC3
Продолжительность : 1 ч. 44 м.
Вид битрейта : Постоянный
Битрейт : 448 Кбит/сек
Каналы : 6 каналов
Расположение каналов : Front: L C R, Side: L R, LFE
Частота : 48,0 КГц
Частота кадров : 31,250 кадров/сек (1536 spf)
Метод сжатия : С потерями
Размер потока : 334 Мбайт (19%)
Язык : Italian
Default : Нет
Forced : Нет
Текст #1
Идентификатор : 4
Формат : VobSub
Режим смешивания : zlib
Идентификатор кодека : S_VOBSUB
Идентификатор кодека/Информация : Picture based subtitle format used on DVDs
Продолжительность : 1 ч. 40 м.
Битрейт : 1543 бит/сек
Count of elements : 781
Размер потока : 1,10 Мбайт (0%)
Язык : Dutch
Default : Нет
Forced : Нет
Текст #2
Идентификатор : 5
Формат : VobSub
Режим смешивания : zlib
Идентификатор кодека : S_VOBSUB
Идентификатор кодека/Информация : Picture based subtitle format used on DVDs
Продолжительность : 1 ч. 43 м.
Битрейт : 1519 бит/сек
Count of elements : 782
Размер потока : 1,13 Мбайт (0%)
Язык : French
Default : Нет
Forced : Нет
Текст #3
Идентификатор : 6
Формат : VobSub
Режим смешивания : zlib
Идентификатор кодека : S_VOBSUB
Идентификатор кодека/Информация : Picture based subtitle format used on DVDs
Продолжительность : 1 ч. 39 м.
Битрейт : 1714 бит/сек
Count of elements : 1052
Размер потока : 1,22 Мбайт (0%)
Язык : English
Default : Нет
Forced : Нет
Текст #4
Идентификатор : 7
Формат : UTF-8
Идентификатор кодека : S_TEXT/UTF8
Идентификатор кодека/Информация : UTF-8 Plain Text
Продолжительность : 1 ч. 40 м.
Битрейт : 80 бит/сек
Count of elements : 946
Размер потока : 59,2 Кбайт (0%)
Язык : Russian
Default : Нет
Forced : Нет
Меню
00:00:00.000 : en:Chapter 01
00:13:52.800 : en:Chapter 02
00:22:42.000 : en:Chapter 03
00:37:42.600 : en:Chapter 04
00:52:57.000 : en:Chapter 05
01:08:37.200 : en:Chapter 06
01:22:25.800 : en:Chapter 07
01:33:24.600 : en:Chapter 08

Скриншоты

[Цитировать]



Показать сообщения:    

Текущее время: 05-Дек 07:27

Часовой пояс: UTC + 3


Вы не можете начинать темы
Вы не можете отвечать на сообщения
Вы не можете редактировать свои сообщения
Вы не можете удалять свои сообщения
Вы не можете голосовать в опросах
Вы не можете прикреплять файлы к сообщениям
Вы не можете скачивать файлы

!ВНИМАНИЕ!
Сайт не предоставляет электронные версии произведений, а занимается лишь коллекционированием и каталогизацией ссылок, присылаемых и публикуемых на форуме нашими читателями. Если вы являетесь правообладателем какого-либо представленного материала и не желаете, чтобы ссылка на него находилась в нашем каталоге, свяжитесь с нами, и мы незамедлительно удалим ее. Файлы для обмена на трекере предоставлены пользователями сайта, и администрация не несет ответственности за их содержание. Просьба не заливать файлы, защищенные авторскими правами, а также файлы нелегального содержания!