[ Сегодня идет свободное скачивание без начисления Download ]


Статистика раздачи
Нет
 
   
 
Top  
 
 
-Останься / Stay (2005) [1080p] BDRip-«Between the worlds of the living and the dead there is a place you're not supposed to stay.»
Русское название: Останься
Оригинальное название: Stay
Год выпуска: 2005
Жанр: Триллер, Драма, Детектив
Описание фильма:
Находящийся на грани помешательства студент Генри Лезем рассказывает психиатру Сэму Фостеру о том, что покончит с собой в субботу в полночь. Не желая допустить гибели Генри, Сэм решает сделать все от него зависящее, чтобы избавить парня от навязчивой идеи.
Он отправляется вместе с ним в путешествие по городу, в ходе которого и сам постепенно начинает погружаться в кошмарные иллюзии пациента, вместе с ним балансируя на тонкой грани между жизнью и смертью…
Режиссер: Марк Форстер
Актеры: Эван МакГрегор, Наоми Уоттс, Райан Гослинг, Элизабет Ризер, Боб Хоскинс, Джанин Гарофало, Б.Д. Вонг, Джон Торми, Хосе Рамон Росарио, Бекки Энн Бэйкер, Грегори Митчелл, Джессика Хехт, Стерлинг К. Браун, Эми Седарис, Марк Марголис, Анджела Пьетропинто, Джарлэт Конрой, Майкл Гэстон, Айзек Де Банколе, Дуглас Кросби, Кевин Осгуд, Кэйт Бертон
Продолжительность: 01:38:55
Перевод: Многоголосый закадровый
Язык субтитров: Русские, Английские
Вид субтитров: Вшитые (Отключаемые)

Дата мировой премьеры: 24 сентября 2005
Видеокодек: MPEG-4 AVC/H.264
Битрейт видео: ~13 500 kbps
Размер кадра: 1916 x 816
Качество видео: BDRip
Аудио №1: Russian / AC3 / 5.1 / 48 kHz / 448 kbps / 16-bit || Профессиональный (двухголосый закадровый) {НТВ+}
Аудио №2: Russian / DTS / 5.1 / 48 kHz / 1 536 kbps / 24-bit || Профессиональный (одноголосый закадровый) {Немахов}
Аудио №3: Russian / AC3 / 2.0 / 48 kHz / 192 kbps / 16-bit || Профессиональный (многоголосый закадровый)
Аудио №4: English / DTS / 5.1 / 48 kHz / 1 536 kbps / 24-bit || Original

MediaInfo

Общее
Уникальный идентификатор : 232516403880308179560134231919654736412 (0xAEED07CD8004803C974E9B3F092A121C)
Полное имя : F:\01-HD\Драма\Останься (2005)\Останься_Stay [2005.BDRip.1080p].mkv
Формат : Matroska
Версия формата : Version 2
Размер файла : 11,9 Гбайт
Продолжительность : 1 ч. 38 м.
Общий поток : 17,2 Мбит/сек
Название фильма : Останься_Stay [2005, BDRip/1080p]
Дата кодирования : UTC 2013-01-14 08:05:52
Программа кодирования : mkvmerge v3.4.0 ('Rapunzel') сборка от May 15 2010 09:38:20
Библиотека кодирования : libebml v0.8.0 + libmatroska v0.9.0
Attachment : Yes
Видео
Идентификатор : 1
Формат : AVC
Формат/Информация : Advanced Video Codec
Профиль формата : [email protected]
Параметр CABAC формата : Да
Параметр ReFrames формата : 5 кадров
Идентификатор кодека : V_MPEG4/ISO/AVC
Продолжительность : 1 ч. 38 м.
Битрейт : 13,5 Мбит/сек
Ширина : 1916 пикселей
Высота : 816 пикселей
Соотношение сторон : 2,35:1
Режим частоты кадров : Постоянный
Частота кадров : 23,976 кадра/сек
Цветовое пространство : YUV
Субдискретизация насыщенности : 4:2:0
Битовая глубина : 8 бит
Тип развёртки : Прогрессивная
Бит/(Пиксели*Кадры) : 0.360
Размер потока : 9,09 Гбайт (77%)
Заголовок : Останься [2005, BDRip/1080p] || [email protected]
Библиотека кодирования : x264 core 116 r2074 2641b9e
Настройки программы : cabac=1 / ref=5 / deblock=1:-3:-3 / analyse=0x3:0x113 / me=umh / subme=11 / psy=1 / psy_rd=1.00:0.10 / mixed_ref=1 / me_range=64 / chroma_me=1 / trellis=2 / 8x8dct=1 / cqm=0 / deadzone=21,11 / fast_pskip=0 / chroma_qp_offset=-3 / threads=12 / sliced_threads=0 / nr=0 / decimate=0 / interlaced=0 / bluray_compat=0 / constrained_intra=0 / bframes=11 / b_pyramid=2 / b_adapt=2 / b_bias=0 / direct=3 / weightb=1 / open_gop=0 / weightp=2 / keyint=250 / keyint_min=23 / scenecut=40 / intra_refresh=0 / rc_lookahead=40 / rc=2pass / mbtree=0 / bitrate=13500 / ratetol=1.0 / qcomp=0.65 / qpmin=0 / qpmax=69 / qpstep=4 / cplxblur=20.0 / qblur=0.5 / vbv_maxrate=40000 / vbv_bufsize=30000 / nal_hrd=none / ip_ratio=1.40 / pb_ratio=1.30 / aq=1:1.00
Язык : English
Default : Нет
Forced : Да
Основные цвета : BT.709
Характеристики трансфера : BT.709
Коэффициенты матрицы : BT.709
Аудио #1
Идентификатор : 2
Формат : AC-3
Формат/Информация : Audio Coding 3
Расширение режима : CM (complete main)
Параметр Endianness формата : Big
Идентификатор кодека : A_AC3
Продолжительность : 1 ч. 38 м.
Вид битрейта : Постоянный
Битрейт : 448 Кбит/сек
Каналы : 6 каналов
Расположение каналов : Front: L C R, Side: L R, LFE
Частота : 48,0 КГц
Битовая глубина : 16 бит
Метод сжатия : С потерями
Размер потока : 317 Мбайт (3%)
Заголовок : DVO {НТВ+} [AC3 [email protected]]
Язык : Russian
Default : Нет
Forced : Да
Аудио #2
Идентификатор : 3
Формат : DTS
Формат/Информация : Digital Theater Systems
Режим : 16
Параметр Endianness формата : Big
Идентификатор кодека : A_DTS
Продолжительность : 1 ч. 38 м.
Вид битрейта : Постоянный
Битрейт : 1509 Кбит/сек
Каналы : 6 каналов
Расположение каналов : Front: L C R, Side: L R, LFE
Частота : 48,0 КГц
Битовая глубина : 24 бит
Метод сжатия : С потерями
Размер потока : 1,04 Гбайт (9%)
Заголовок : AVO {Немахов} [DTS [email protected]/24-bit]
Язык : Russian
Default : Нет
Forced : Нет
Аудио #3
Идентификатор : 4
Формат : AC-3
Формат/Информация : Audio Coding 3
Расширение режима : CM (complete main)
Параметр Endianness формата : Big
Идентификатор кодека : A_AC3
Продолжительность : 1 ч. 38 м.
Вид битрейта : Постоянный
Битрейт : 192 Кбит/сек
Каналы : 2 канала
Расположение каналов : Front: L R
Частота : 48,0 КГц
Битовая глубина : 16 бит
Метод сжатия : С потерями
Размер потока : 136 Мбайт (1%)
Заголовок : MVO {Tycoon} [AC3 [email protected]]
Язык : Russian
Default : Нет
Forced : Нет
Аудио #4
Идентификатор : 5
Формат : DTS
Формат/Информация : Digital Theater Systems
Режим : 16
Параметр Endianness формата : Big
Идентификатор кодека : A_DTS
Продолжительность : 1 ч. 38 м.
Вид битрейта : Постоянный
Битрейт : 1509 Кбит/сек
Каналы : 6 каналов
Расположение каналов : Front: L C R, Side: L R, LFE
Частота : 48,0 КГц
Битовая глубина : 24 бит
Метод сжатия : С потерями
Размер потока : 1,04 Гбайт (9%)
Заголовок : Original [DTS [email protected]/24-bit]
Язык : English
Default : Нет
Forced : Нет
Текст #1
Идентификатор : 6
Формат : UTF-8
Идентификатор кодека : S_TEXT/UTF8
Идентификатор кодека/Информация : UTF-8 Plain Text
Заголовок : Full
Язык : Russian
Default : Нет
Forced : Нет
Текст #2
Идентификатор : 7
Формат : UTF-8
Идентификатор кодека : S_TEXT/UTF8
Идентификатор кодека/Информация : UTF-8 Plain Text
Заголовок : Full
Язык : English
Default : Нет
Forced : Нет
Меню
00:00:00.000 : :00:00:00.000
00:09:50.381 : :00:09:50.381
00:16:37.747 : :00:16:37.747
00:27:35.070 : :00:27:35.070
00:34:58.096 : :00:34:58.096
00:41:04.754 : :00:41:04.754
00:48:26.195 : :00:48:26.195
00:56:09.324 : :00:56:09.324
01:04:07.218 : :01:04:07.218
01:09:27.830 : :01:09:27.830
01:17:18.217 : :01:17:18.217
01:25:08.854 : :01:25:08.854
Скриншоты:


Время раздачи: 24/7 - по возможности

[Цитировать]



Показать сообщения:    

Текущее время: 06-Дек 20:54

Часовой пояс: UTC + 3


Вы не можете начинать темы
Вы не можете отвечать на сообщения
Вы не можете редактировать свои сообщения
Вы не можете удалять свои сообщения
Вы не можете голосовать в опросах
Вы не можете прикреплять файлы к сообщениям
Вы не можете скачивать файлы

!ВНИМАНИЕ!
Сайт не предоставляет электронные версии произведений, а занимается лишь коллекционированием и каталогизацией ссылок, присылаемых и публикуемых на форуме нашими читателями. Если вы являетесь правообладателем какого-либо представленного материала и не желаете, чтобы ссылка на него находилась в нашем каталоге, свяжитесь с нами, и мы незамедлительно удалим ее. Файлы для обмена на трекере предоставлены пользователями сайта, и администрация не несет ответственности за их содержание. Просьба не заливать файлы, защищенные авторскими правами, а также файлы нелегального содержания!