[ Сегодня идет свободное скачивание без начисления Download ]


Статистика раздачи
Нет
 
   
 
 
 
Бои без правил (2014) SATRip - Телекомпания: Россия, Первый канал
Жанр: Документальный
Участники: Людмила Снигирева
Описание:
Бои без правил - смешанный бой. Для кого-то это кровавое шоу, для кого-то спорт, для кого-то способ проявить себя, а еще для кого-то только способ подраться. В любом случае один боец будет повержен, другой встанет на ринге с поднятой рукой. И только ради этих мгновений он готов идти до конца.
Продолжительность: 00:44:53
Качество видео: SATRip
Видео: Xvid, 640x356, ~544 Kbps
Аудио: MP3, 2 ch, 128 kbps

Mediainfo:

Общее
Полное имя                               : F:\Бои без правил.avi
Формат                                   : AVI
Формат/Информация                        : Audio Video Interleave
Размер файла                             : 221 Мбайт
Продолжительность                        : 44 м. 53 с.
Общий поток                              : 688 Кбит/сек
Видео
Идентификатор                            : 0
Формат                                   : AVC
Формат/Информация                        : Advanced Video Codec
Профиль формата                          : Baseline@L3
Параметр CABAC формата                   : Нет
Параметр ReFrames формата                : 1 кадр
Идентификатор кодека                     : H264
Продолжительность                        : 44 м. 53 с.
Битрейт                                  : 544 Кбит/сек
Ширина                                   : 640 пикселей
Высота                                   : 356 пикселей
Соотношение сторон                       : 16:9
Режим частоты кадров                     : Переменный
Частота кадров                           : 25,000 кадров/сек
Цветовое пространство                    : YUV
Субдискретизация насыщенности            : 4:2:0
Битовая глубина                          : 8 бит
Тип развёртки                            : Прогрессивная
Бит/(Пиксели*Кадры)                      : 0.096
Размер потока                            : 175 Мбайт (79%)
Аудио
Идентификатор                            : 1
Формат                                   : MPEG Audio
Версия формата                           : Version 1
Профиль формата                          : Layer 3
Режим                                    : Joint stereo
Расширение режима                        : MS Stereo
Идентификатор кодека                     : 55
Идентификатор кодека/Подсказка           : MP3
Продолжительность                        : 44 м. 53 с.
Вид битрейта                             : Постоянный
Битрейт                                  : 128 Кбит/сек
Каналы                                   : 2 канала
Частота                                  : 44,1 КГц
Метод сжатия                             : С потерями
Размер потока                            : 41,1 Мбайт (19%)
Выравнивание                             : Соединение по промежуткам
Продолжительность промежутка             : 26  мс. (0,65 видеокадр)
Библиотека кодирования                   : LAME3.98.2
Скриншоты:

[Цитировать]

Топик был перенесен из форума Единоборства в форум Смешанные единоборства
Scorpio



Показать сообщения:    

Текущее время: 16-Янв 13:55

Часовой пояс: UTC + 3


Вы не можете начинать темы
Вы не можете отвечать на сообщения
Вы не можете редактировать свои сообщения
Вы не можете удалять свои сообщения
Вы не можете голосовать в опросах
Вы не можете прикреплять файлы к сообщениям
Вы не можете скачивать файлы

!ВНИМАНИЕ!
Сайт не предоставляет электронные версии произведений, а занимается лишь коллекционированием и каталогизацией ссылок, присылаемых и публикуемых на форуме нашими читателями. Если вы являетесь правообладателем какого-либо представленного материала и не желаете, чтобы ссылка на него находилась в нашем каталоге, свяжитесь с нами, и мы незамедлительно удалим ее. Файлы для обмена на трекере предоставлены пользователями сайта, и администрация не несет ответственности за их содержание. Просьба не заливать файлы, защищенные авторскими правами, а также файлы нелегального содержания!