[ Today is free to download without increasing Download ]

DL-List and Torrent activity
Бои без правил (2014) SATRip - Телекомпания: Россия, Первый канал
Жанр: Документальный
Участники: Людмила Снигирева
Бои без правил - смешанный бой. Для кого-то это кровавое шоу, для кого-то спорт, для кого-то способ проявить себя, а еще для кого-то только способ подраться. В любом случае один боец будет повержен, другой встанет на ринге с поднятой рукой. И только ради этих мгновений он готов идти до конца.
Продолжительность: 00:44:53
Качество видео: SATRip
Видео: Xvid, 640x356, ~544 Kbps
Аудио: MP3, 2 ch, 128 kbps


Полное имя                               : F:\Бои без правил.avi
Формат                                   : AVI
Формат/Информация                        : Audio Video Interleave
Размер файла                             : 221 Мбайт
Продолжительность                        : 44 м. 53 с.
Общий поток                              : 688 Кбит/сек
Идентификатор                            : 0
Формат                                   : AVC
Формат/Информация                        : Advanced Video Codec
Профиль формата                          : Baseline@L3
Параметр CABAC формата                   : Нет
Параметр ReFrames формата                : 1 кадр
Идентификатор кодека                     : H264
Продолжительность                        : 44 м. 53 с.
Битрейт                                  : 544 Кбит/сек
Ширина                                   : 640 пикселей
Высота                                   : 356 пикселей
Соотношение сторон                       : 16:9
Режим частоты кадров                     : Переменный
Частота кадров                           : 25,000 кадров/сек
Цветовое пространство                    : YUV
Субдискретизация насыщенности            : 4:2:0
Битовая глубина                          : 8 бит
Тип развёртки                            : Прогрессивная
Бит/(Пиксели*Кадры)                      : 0.096
Размер потока                            : 175 Мбайт (79%)
Идентификатор                            : 1
Формат                                   : MPEG Audio
Версия формата                           : Version 1
Профиль формата                          : Layer 3
Режим                                    : Joint stereo
Расширение режима                        : MS Stereo
Идентификатор кодека                     : 55
Идентификатор кодека/Подсказка           : MP3
Продолжительность                        : 44 м. 53 с.
Вид битрейта                             : Постоянный
Битрейт                                  : 128 Кбит/сек
Каналы                                   : 2 канала
Частота                                  : 44,1 КГц
Метод сжатия                             : С потерями
Размер потока                            : 41,1 Мбайт (19%)
Выравнивание                             : Соединение по промежуткам
Продолжительность промежутка             : 26  мс. (0,65 видеокадр)
Библиотека кодирования                   : LAME3.98.2


Топик был перенесен из форума Единоборства в форум Смешанные единоборства

Display posts:    

Current time is: 25-Oct 18:36

All times are UTC + 3

You cannot post new topics in this forum
You cannot reply to topics in this forum
You cannot edit your posts in this forum
You cannot delete your posts in this forum
You cannot vote in polls in this forum
You cannot attach files in this forum
You cannot download files in this forum

The site does not give electronic versions of products, and is engaged only in a collecting and cataloguing of the references sent and published at a forum by our readers. If you are the legal owner of any submitted material and do not wish that the reference to it was in our catalogue, contact us and we shall immediately remove her. Files for an exchange on tracker are given by users of a site, and the administration does not bear the responsibility for their maintenance. The request to not fill in the files protected by copyrights, and also files of the illegal maintenance!