[ Сегодня идет свободное скачивание без начисления Download ]


Статистика раздачи
Нет
 
   
 
Top  
 
 
-Торчки / Полный улет / How High (2001) HDTV- Русское название: Торчки / Полный улет
Оригинальное название: How High
Год выпуска: 2001
Страна: США
Жанр: Комедия
Описание фильма:
Вопрос: примут ли в престижный Гарвардский университет двух невыносимо тупых, потрясающе грубых и абсолютно «отмороженных» «торчков»-наркоманов, буквально не выпускающих «косяк» из рук?
Ответ: примут и с большим удовольствием! Более того, после поступления наши чудесные герои сразу сумеют «подсадить» на траву не только всех учащихся, но и профессорско-преподавательский состав!
Старый Гарвард доживает свои последние спокойные дни…

Режиссер: Джесси Дилан
Актеры: Метод Мэн, Редман, Обба Бабатунде, Майк Еппс, Анна Мария Хорсфорд, Фред Уиллард, Джеффри Джонс, Гектор Элизондо, Lark Voorhies, Аль Ширер
Продолжительность: 01:33:31
Перевод:
• Профессиональный (многоголосый закадровый)
• Авторский (одноголосый закадровый)

Язык субтитров: Английский
Вид субтитров: Вшитые отключаемые

Видеокодек: MPEG-2
Битрейт видео: ~13,3 Мбит/сек
Размер кадра: 1920x1080
Качество видео: HDTV 1080i
Контейнер: MKV
Аудиокодек: AC3 , DTS
Аудио #1: Русский ( AC3 / 2.0 / 48 kHz / 384 kbps ) - Многоголосый закадровый
Аудио #2: Русский ( AC3 / 5.1 / 48 kHz / 448 kbps ) - Одноголосый закадровый
Аудио #3: Английский ( DTS / 5.1 / 48 kHz / 755 kbps )-

MediaInfo

Общее
Уникальный идентификатор : 215119493726509611722628579030184759643 (0xA1D681E8D4176A28B5E164A2EC54115B)
Полное имя : Торчки / Полный улет / How High . 2001.HDTV.1080i.mkv
Формат : Matroska
Версия формата : Version 4 / Version 2
Размер файла : 9,92 Гбайт
Продолжительность : 1 ч. 33 м.
Режим общего битрейта : Переменный
Общий поток : 15,2 Мбит/сек
Дата кодирования : UTC 2010-02-22 21:41:31
Программа кодирования : mkvmerge v5.9.0 ('On The Loose') built on Dec 9 2012 15:37:01
Библиотека кодирования : libebml v1.3.0 + libmatroska v1.4.0
Видео
Идентификатор : 1
Формат : MPEG Video
Версия формата : Version 2
Профиль формата : Main@High
Параметр BVOP формата : Да
Параметр матрицы формата : Выборочная
Идентификатор кодека : V_MPEG2
Идентификатор кодека/Информация : MPEG 1 or 2 Video
Продолжительность : 1 ч. 33 м.
Вид битрейта : Переменный
Битрейт : 13,3 Мбит/сек
Максимальный битрейт : 15,0 Мбит/сек
Ширина : 1920 пикселей
Высота : 1080 пикселей
Соотношение сторон : 16:9
Режим частоты кадров : Постоянный
Частота кадров : 29,970 кадров/сек
Цветовое пространство : YUV
Субдискретизация насыщенности : 4:2:0
Битовая глубина : 8 бит
Тип развёртки : Чересстрочная
Порядок развёртки : Верхнее поле первое
Метод сжатия : С потерями
Бит/(Пиксели*Кадры) : 0.214
Размер потока : 8,69 Гбайт (88%)
Заголовок : English
Язык : English
Default : Да
Forced : Нет
Аудио #1
Идентификатор : 2
Формат : AC-3
Формат/Информация : Audio Coding 3
Расширение режима : CM (complete main)
Параметр Endianness формата : Big
Идентификатор кодека : A_AC3
Продолжительность : 1 ч. 33 м.
Вид битрейта : Постоянный
Битрейт : 384 Кбит/сек
Каналы : 2 канала
Расположение каналов : Front: L R
Частота : 48,0 КГц
Битовая глубина : 16 бит
Метод сжатия : С потерями
Размер потока : 257 Мбайт (3%)
Заголовок : MVO
Язык : Russian
Default : Да
Forced : Нет
Аудио #2
Идентификатор : 3
Формат : AC-3
Формат/Информация : Audio Coding 3
Расширение режима : CM (complete main)
Параметр Endianness формата : Big
Идентификатор кодека : A_AC3
Продолжительность : 1 ч. 33 м.
Вид битрейта : Постоянный
Битрейт : 448 Кбит/сек
Каналы : 6 каналов
Расположение каналов : Front: L C R, Side: L R, LFE
Частота : 48,0 КГц
Битовая глубина : 16 бит
Метод сжатия : С потерями
Размер потока : 300 Мбайт (3%)
Заголовок : VO
Язык : Russian
Default : Нет
Forced : Нет
Аудио #3
Идентификатор : 4
Формат : DTS
Формат/Информация : Digital Theater Systems
Идентификатор кодека : A_DTS
Продолжительность : 1 ч. 33 м.
Вид битрейта : Постоянный
Битрейт : 755 Кбит/сек
Каналы : 6 каналов
Расположение каналов : Front: L C R, Side: L R, LFE
Частота : 48,0 КГц
Битовая глубина : 16 бит
Метод сжатия : С потерями
Размер потока : 505 Мбайт (5%)
Заголовок : Original
Язык : English
Default : Нет
Forced : Нет
Текст
Идентификатор : 5
Формат : UTF-8
Идентификатор кодека : S_TEXT/UTF8
Идентификатор кодека/Информация : UTF-8 Plain Text
Заголовок : Original [SDH]
Язык : English
Default : Нет
Forced : Нет
Меню
00:00:00.000 : :Chapter 01
00:08:23.968 : :Chapter 02
00:10:01.302 : :Chapter 03
00:14:24.603 : :Chapter 04
00:16:58.571 : :Chapter 05
00:23:32.506 : :Chapter 06
00:30:25.541 : :Chapter 07
00:36:05.108 : :Chapter 08
00:38:43.775 : :Chapter 09
00:44:14.176 : :Chapter 10
00:47:51.777 : :Chapter 11
00:55:40.944 : :Chapter 12
01:06:58.778 : :Chapter 13
01:08:47.646 : :Chapter 14
01:11:49.646 : :Chapter 15
01:20:05.613 : :Chapter 16
01:23:14.813 : :Chapter 17
01:27:18.480 : :Chapter 18
01:33:25.614 : :Chapter 19
-Скриншоты:




Время раздачи: с 10:00 до 23:00 ежедневно

[Цитировать]



Показать сообщения:    

Текущее время: 10-Дек 11:53

Часовой пояс: UTC + 3


Вы не можете начинать темы
Вы не можете отвечать на сообщения
Вы не можете редактировать свои сообщения
Вы не можете удалять свои сообщения
Вы не можете голосовать в опросах
Вы не можете прикреплять файлы к сообщениям
Вы не можете скачивать файлы

!ВНИМАНИЕ!
Сайт не предоставляет электронные версии произведений, а занимается лишь коллекционированием и каталогизацией ссылок, присылаемых и публикуемых на форуме нашими читателями. Если вы являетесь правообладателем какого-либо представленного материала и не желаете, чтобы ссылка на него находилась в нашем каталоге, свяжитесь с нами, и мы незамедлительно удалим ее. Файлы для обмена на трекере предоставлены пользователями сайта, и администрация не несет ответственности за их содержание. Просьба не заливать файлы, защищенные авторскими правами, а также файлы нелегального содержания!