[ Сегодня идет свободное скачивание без начисления Download ]


Статистика раздачи
Нет
 
   
 
Top  
 
 
-Зачарованная / Enchanted (2007) BDRip-«Все еще ждешь принца?.. Добро пожаловать в реальный мир.»- Русское название: Зачарованная
Оригинальное название: Enchanted
Год выпуска: 2007
Производство: США (Walt Disney)
Жанр: мюзикл, фэнтези, мелодрама, комедия, семейный
Описание фильма:
Юная девушка из мультипликационного мира влюбилась в прекрасного принца, чем немало разозлила его мачеху. С помощью черной магии королева отправляет несчастную в единственное место во Вселенной, где нет любви — современный Манхэттен. Вчерашней мультяшке придется как-то выживать в реальности.

Режиссер: Кевин Лима
Актеры: Эми Адамс, Патрик Демпси, Джеймс Марсден, Тимоти Сполл, Идина Мензел, Рэйчел Кови, Сьюзен Сарандон, Джули Эндрюс, Джефф Беннетт, Кевин Лима и др-Рейтинги:
Дата мировой премьеры: 22 ноября 2007, «BVSPR»
Релиз на Blu-Ray (РФ): 20 апреля 2010, «Уолт Дисней Компани СНГ»-Релиз от:
Продолжительность: 01:47:28
Перевод: Дубляж, Двухголосый (закадровый ) 2 варианта
Субтитры: Русские, Английские
Качество видео: BDRip (batonchik)
Видеокодек: MPEG-4 AVC/H.264
Битрейт видео: ~ 7800 Кбит/сек
Размер кадра: 1280x720 (16:9)
Аудио:
Аудио 1: Русский Dolby Digital Audio / 5.1 / 48 kHz / 640 kbps [дубляж BD CEE]
Аудио 2: Русский Dolby Digital Audio / 5.1 / 48 kHz / 448 kbps [DVO#1]
Аудио 3: Русский Dolby Digital Audio / 2.0 / 48 kHz / 192 kbps [DVO#2]
Аудио 4: Английский Dolby Digital Audio / 5.1 / 48 kHz / 640 kbps

H.264 log

--[Information] [14.01.2013 5:17:24] Standard error stream
---[NoImage] raw [info]: 1280x720p 1:1 @ 24000/1001 fps (cfr)
---[NoImage] x264 [info]: using SAR=1/1
---[NoImage] x264 [info]: using cpu capabilities: MMX2 SSE2Fast SSSE3 FastShuffle SSE4.2 AVX
---[NoImage] x264 [info]: profile High, level 4.1
---[NoImage]
---[NoImage] x264 [info]: frame I:1208 Avg QP:15.93 size:183167
---[NoImage] x264 [info]: frame P:38262 Avg QP:18.32 size: 71107
---[NoImage] x264 [info]: frame B:115138 Avg QP:20.58 size: 29037

---[NoImage] x264 [info]: consecutive B-frames: 2.6% 5.3% 7.0% 42.7% 11.8% 24.1% 3.5% 2.6% 0.3% 0.1% 0.1%
---[NoImage] x264 [info]: mb I I16..4: 8.7% 70.5% 20.9%
---[NoImage] x264 [info]: mb P I16..4: 1.0% 19.9% 2.4% P16..4: 30.5% 22.8% 17.9% 1.5% 0.7% skip: 3.3%
---[NoImage] x264 [info]: mb B I16..4: 0.1% 3.3% 0.3% B16..8: 41.2% 16.1% 5.3% direct: 9.5% skip:24.3% L0:39.6% L1:42.0% BI:18.5%
---[NoImage] x264 [info]: 8x8 transform intra:85.7% inter:54.7%
---[NoImage] x264 [info]: direct mvs spatial:98.3% temporal:1.7%
---[NoImage] x264 [info]: coded y,uvDC,uvAC intra: 94.6% 92.4% 78.3% inter: 45.0% 37.6% 13.7%
---[NoImage] x264 [info]: i16 v,h,dc,p: 34% 13% 18% 36%
---[NoImage] x264 [info]: i8 v,h,dc,ddl,ddr,vr,hd,vl,hu: 11% 7% 9% 10% 14% 14% 12% 12% 12%
---[NoImage] x264 [info]: i4 v,h,dc,ddl,ddr,vr,hd,vl,hu: 11% 7% 4% 10% 16% 15% 13% 12% 12%
---[NoImage] x264 [info]: i8c dc,h,v,p: 49% 16% 17% 18%
---[NoImage] x264 [info]: Weighted P-Frames: Y:2.3% UV:1.5%
---[NoImage] x264 [info]: ref P L0: 48.7% 11.9% 21.4% 6.8% 6.6% 4.2% 0.4% 0.0%
---[NoImage] x264 [info]: ref B L0: 79.9% 11.8% 5.4% 2.1% 0.8%
---[NoImage] x264 [info]: ref B L1: 94.8% 5.2%
---[NoImage] x264 [info]: kb/s:7797.44
---[NoImage] encoded 154608 frames, 9.20 fps, 7797.44 kb/s
--[Information] Final statistics
---[Information] [14.01.2013 5:17:24] Video Bitrate Desired: 7800 kbit/s
---[Information] [14.01.2013 5:17:24] Video Bitrate Obtained (approximate): 7799 kbit/s

MediaInfo 0.7.61

Общее
Уникальный идентификатор : 217577256005482858136968077372604946834 (0xA3AFDAF20C3E3ADD89070ECE80961992)
Полное имя : R:\3333\Zacharovannaya.2007.BDRip.720p.NNM-CLUB.mkv
Формат : Matroska
Версия формата : Version 4 / Version 2
Размер файла : 7,30 Гбайт
Продолжительность : 1 ч. 47 м.
Общий поток : 9721 Кбит/сек
Название фильма : Zacharovannaya.2007.BDRip.720p.NNM-CLUB
Дата кодирования : UTC 2010-02-22 21:41:31
Программа кодирования : mkvmerge v5.9.0 ('On The Loose') built on Dec 9 2012 15:37:01
Библиотека кодирования : libebml v1.3.0 + libmatroska v1.4.0
Attachment : Yes
Видео
Идентификатор : 1
Формат : AVC
Формат/Информация : Advanced Video Codec
Профиль формата : [email protected]
Параметр CABAC формата : Да
Параметр ReFrames формата : 6 кадров
Идентификатор кодека : V_MPEG4/ISO/AVC
Продолжительность : 1 ч. 47 м.
Битрейт : 7800 Кбит/сек
Ширина : 1280 пикселей
Высота : 720 пикселей
Соотношение сторон : 16:9
Режим частоты кадров : Постоянный
Частота кадров : 23,976 кадра/сек
Цветовое пространство : YUV
Субдискретизация насыщенности : 4:2:0
Битовая глубина : 8 бит
Тип развёртки : Прогрессивная
Бит/(Пиксели*Кадры) : 0.353
Размер потока : 5,71 Гбайт (78%)
Заголовок : Zacharovannaya.2007.BDRip.720p.NNM-CLUB
Библиотека кодирования : x264 core 129 r2230 1cffe9f
Настройки программы : cabac=1 / ref=6 / deblock=1:-3:-3 / analyse=0x3:0x133 / me=umh / subme=10 / psy=1 / psy_rd=1.00:0.15 / mixed_ref=1 / me_range=32 / chroma_me=1 / trellis=2 / 8x8dct=1 / cqm=0 / deadzone=21,11 / fast_pskip=0 / chroma_qp_offset=-3 / threads=12 / lookahead_threads=2 / sliced_threads=0 / nr=0 / decimate=1 / interlaced=0 / bluray_compat=0 / constrained_intra=0 / bframes=10 / b_pyramid=2 / b_adapt=2 / b_bias=0 / direct=3 / weightb=1 / open_gop=0 / weightp=2 / keyint=240 / keyint_min=22 / scenecut=40 / intra_refresh=0 / rc_lookahead=50 / rc=2pass / mbtree=1 / bitrate=7800 / ratetol=1.0 / qcomp=0.60 / qpmin=10 / qpmax=51 / qpstep=4 / cplxblur=20.0 / qblur=0.5 / ip_ratio=1.40 / aq=1:1.00
Язык : English
Default : Да
Forced : Нет
Аудио #1
Идентификатор : 2
Формат : AC-3
Формат/Информация : Audio Coding 3
Расширение режима : CM (complete main)
Параметр Endianness формата : Big
Идентификатор кодека : A_AC3
Продолжительность : 1 ч. 47 м.
Вид битрейта : Постоянный
Битрейт : 640 Кбит/сек
Каналы : 6 каналов
Расположение каналов : Front: L C R, Side: L R, LFE
Частота : 48,0 КГц
Битовая глубина : 16 бит
Метод сжатия : С потерями
Размер потока : 492 Мбайт (7%)
Заголовок : Дубляж с BD CEE
Язык : Russian
Default : Да
Forced : Нет
Аудио #2
Идентификатор : 3
Формат : AC-3
Формат/Информация : Audio Coding 3
Расширение режима : CM (complete main)
Параметр Endianness формата : Big
Идентификатор кодека : A_AC3
Продолжительность : 1 ч. 47 м.
Вид битрейта : Постоянный
Битрейт : 448 Кбит/сек
Каналы : 6 каналов
Расположение каналов : Front: L C R, Side: L R, LFE
Частота : 48,0 КГц
Битовая глубина : 16 бит
Метод сжатия : С потерями
Размер потока : 344 Мбайт (5%)
Заголовок : DVO#1
Язык : Russian
Default : Нет
Forced : Нет
Аудио #3
Идентификатор : 4
Формат : AC-3
Формат/Информация : Audio Coding 3
Расширение режима : CM (complete main)
Параметр Endianness формата : Big
Идентификатор кодека : A_AC3
Продолжительность : 1 ч. 47 м.
Вид битрейта : Постоянный
Битрейт : 192 Кбит/сек
Каналы : 2 канала
Расположение каналов : Front: L R
Частота : 48,0 КГц
Битовая глубина : 16 бит
Метод сжатия : С потерями
Размер потока : 148 Мбайт (2%)
Заголовок : DVO#2
Язык : Russian
Default : Нет
Forced : Нет
Аудио #4
Идентификатор : 5
Формат : AC-3
Формат/Информация : Audio Coding 3
Расширение режима : CM (complete main)
Параметр Endianness формата : Big
Идентификатор кодека : A_AC3
Продолжительность : 1 ч. 47 м.
Вид битрейта : Постоянный
Битрейт : 640 Кбит/сек
Каналы : 6 каналов
Расположение каналов : Front: L C R, Side: L R, LFE
Частота : 48,0 КГц
Битовая глубина : 16 бит
Метод сжатия : С потерями
Размер потока : 492 Мбайт (7%)
Заголовок : Оригинал
Язык : Russian
Default : Нет
Forced : Нет
Текст #1
Идентификатор : 6
Формат : UTF-8
Идентификатор кодека : S_TEXT/UTF8
Идентификатор кодека/Информация : UTF-8 Plain Text
Заголовок : Forced
Язык : Russian
Default : Да
Forced : Нет
Текст #2
Идентификатор : 7
Формат : UTF-8
Идентификатор кодека : S_TEXT/UTF8
Идентификатор кодека/Информация : UTF-8 Plain Text
Заголовок : BD CEE
Язык : Russian
Default : Нет
Forced : Нет
Текст #3
Идентификатор : 8
Формат : UTF-8
Идентификатор кодека : S_TEXT/UTF8
Идентификатор кодека/Информация : UTF-8 Plain Text
Заголовок : Voronine
Язык : Russian
Default : Нет
Forced : Нет
Текст #4
Идентификатор : 9
Формат : UTF-8
Идентификатор кодека : S_TEXT/UTF8
Идентификатор кодека/Информация : UTF-8 Plain Text
Язык : English
Default : Нет
Forced : Нет
Текст #5
Идентификатор : 10
Формат : UTF-8
Идентификатор кодека : S_TEXT/UTF8
Идентификатор кодека/Информация : UTF-8 Plain Text
Заголовок : SDH
Язык : English
Default : Нет
Forced : Нет
Меню
00:00:00.000 : en:Once Upon a Time...
00:04:16.298 : en:Hes Out There Somewhere
00:08:01.815 : en:A Wishing Well
00:13:04.867 : en:A Bit of Kindness
00:17:36.430 : en:Welcome to New York
00:23:25.404 : en:"Happy Working Song"
00:28:21.700 : en:Grown-Up Girl Bonding Time
00:34:03.291 : en:Have You Found Her Yet?
00:40:17.707 : en:A Divorce for Ever and Ever
00:45:24.096 : en:"Thats How You Know"
00:52:36.028 : en:The Magic Mirror
00:57:06.381 : en:Not a Date
01:07:40.056 : en:Edward Arrives
01:12:46.112 : en:A SplendIDDate
01:16:53.817 : en:The Queen Arrives
01:20:23.402 : en:A Dance
01:24:06.166 : en:Just One Bite
01:26:43.365 : en:True Loves Kiss
01:32:31.212 : en:A Tale of New Heights
01:39:05.898 : en:The End

Знаете ли Вы, что...

На главную женскую роль пробовалась Ума Турман.
Скриншоты:




Время раздачи: круглогодичноИграю на аккордеоне за "Спасибо"

[Цитировать]



Показать сообщения:    

Текущее время: 04-Дек 23:20

Часовой пояс: UTC + 3


Вы не можете начинать темы
Вы не можете отвечать на сообщения
Вы не можете редактировать свои сообщения
Вы не можете удалять свои сообщения
Вы не можете голосовать в опросах
Вы не можете прикреплять файлы к сообщениям
Вы не можете скачивать файлы

!ВНИМАНИЕ!
Сайт не предоставляет электронные версии произведений, а занимается лишь коллекционированием и каталогизацией ссылок, присылаемых и публикуемых на форуме нашими читателями. Если вы являетесь правообладателем какого-либо представленного материала и не желаете, чтобы ссылка на него находилась в нашем каталоге, свяжитесь с нами, и мы незамедлительно удалим ее. Файлы для обмена на трекере предоставлены пользователями сайта, и администрация не несет ответственности за их содержание. Просьба не заливать файлы, защищенные авторскими правами, а также файлы нелегального содержания!