[ Today is free to download without increasing Download ]

DL-List and Torrent activity
Complete: [ 1 ]
Жизнь за брата / The Heavy (2010) BDRip Страна: Великобритания США
Производство: Contraption Limited, Heavy Productions
Год выпуска: 2010
Жанр: триллер
Продолжительность: 01:41:46
Режиссер: Маркус Уоррен
Автор сценария: Маркус Уоррен
В ролях: Гари Стретч, Винни Джонс, Стивен Ри, Шаннин Соссамон, Кристофер Ли, Ли Райан, Эдриан Пол, Джин Марш, Сэди Фрост, Джофф Белл
Описание: Герой фильма — бандит-«шестёрка» Бутс, который в уплату долга своему боссу должен убить собственного брата-политика. По ходу реализации плана в пустой квартире из которой должен быть произведен роковой выстрел случайно оказывается симпатичная студентка Клэр. Так же дело осложняется тем, что по следу потенциального киллера идёт коррумпированный детектив Данн...

Перевод: Профессиональный (многоголосый, закадровый) | R5
Субтитры: нет-Качество: BDRip
Формат: AVI
Видео кодек: XviD
Аудио кодек: AC3
Видео: 704x384 (1.85:1), 23.976 fps, XviD build 65 ~1 656 kbps avg
Аудио: 48.0 kHz, AC3 Dolby Digital, 3/2 (L,C,R,l,r) + LFE ch, ~384 kbps
Дата премьеры (мир): 8 апреля 2010

Media Info

Complete name : The.Heavy.2010.BDRip.XviD-denashekkk.avi
Format : AVI
Format/Info : Audio Video Interleave
File size : 1.46 GiB
Duration : 1h 41mn
Overall bit rate : 2 049 Kbps
Writing application : VirtualDubMod (build 2540/release)
Writing library : VirtualDubMod build 2540/release
ID : 0
Format : MPEG-4 Visual
Format profile : Advanced Simple@L5
Format settings, BVOP : 2
Format settings, QPel : No
Format settings, GMC : No warppoints
Format settings, Matrix : Custom
Codec ID : XVID
Codec ID/Hint : XviD
Duration : 1h 41mn
Bit rate : 1 656 Kbps
Width : 704 pixels
Height : 384 pixels
Display aspect ratio : 16:9
Frame rate : 23.976 fps
Color space : YUV
Chroma subsampling : 4:2:0
Bit depth : 8 bits
Scan type : Progressive
Compression mode : Lossy
Bits/(Pixel*Frame) : 0.256
Stream size : 1.18 GiB (81%)
Writing library : XviD 65
ID : 1
Format : AC-3
Format/Info : Audio Coding 3
Mode extension : CM (complete main)
Codec ID : 2000
Duration : 1h 41mn
Bit rate mode : Constant
Bit rate : 384 Kbps
Channel(s) : 6 channels
Channel positions : Front: L C R, Side: L R, LFE
Sampling rate : 48.0 KHz
Bit depth : 16 bits
Compression mode : Lossy
Stream size : 280 MiB (19%)
Alignment : Split accross interleaves
Interleave, duration : 42 ms (1.00 video frame)
Interleave, preload duration : 500 ms



Display posts:    

Current time is: 28-Oct 20:52

All times are UTC + 3

You cannot post new topics in this forum
You cannot reply to topics in this forum
You cannot edit your posts in this forum
You cannot delete your posts in this forum
You cannot vote in polls in this forum
You cannot attach files in this forum
You cannot download files in this forum

The site does not give electronic versions of products, and is engaged only in a collecting and cataloguing of the references sent and published at a forum by our readers. If you are the legal owner of any submitted material and do not wish that the reference to it was in our catalogue, contact us and we shall immediately remove her. Files for an exchange on tracker are given by users of a site, and the administration does not bear the responsibility for their maintenance. The request to not fill in the files protected by copyrights, and also files of the illegal maintenance!