[ Сегодня идет свободное скачивание без начисления Download ]


Статистика раздачи
Нет
 
   
 
 
 
-Восстание андроидов / Android Insurrection (2012) BDRip- Русское название: Восстание андроидов
Оригинальное название: Android Insurrection
Год выпуска: 2012
Страна: США
Жанр: Фантастика, Боевик
Описание фильма:
Далекое будущее. Высокоразвитая цивилизация землян осваивает другие планеты с помощью роботов-андроидов. Неожиданно они восстают против землян. Для подавления восстания на планету направлена хорошо вооруженная группа специального назначения. Руководит группой майор Фокс. Но проблема оказалась серьезнее, чем ожидалось — андроиды обрели самосознание и могут ремонтировать друг друга. К счастью, несколько роботов все еще лояльны к землянам…
Режиссер: Эндрю Беллвар
Актеры: Джуанита Ариас, Нат Кассиди, Ребекка Куш, Beckett Lee, Дэвид Йен Ли, Вирджиния Логан, Sarah-Do Osborne, Томас Роуэн
Продолжительность: 01:21:39
Перевод: Профессиональный (многоголосый, закадровый) [лицензия]- -Дата мировой премьеры: 24 мая 2012
Дата выхода DVD релиза: 11 декабря 2012, «Lizard Cinema Trade»
Видеокодек: MPEG-4 AVC/H.264
Битрейт видео: ~6103 Кбит/сек
Размер кадра: 1920x816
Качество видео: BDRip 1080p
Контейнер: MKV
Аудиокодек: AC3 , DTS
Аудио #1: Русский ( AC3 / 5.1 / 48 kHz / 448 kbps ) - Профессиональный (многоголосый)
Аудио #2: Немецкий ( DTS / 5.1 / 48 kHz / 1510 kbps )
Аудио #3: Английский ( DTS / 5.1 / 48 kHz / 1510 kbps )-

MediaInfo

Общее
Уникальный идентификатор : 244823478646439757861073967212224450680 (0xB82F496FC00D21329AF4A618F31E1078)
Полное имя : E:\Интернет-загрузки\Готовые торренты\Восстание андроидов.2012.BDRip.1080p.mkv
Формат : Matroska
Версия формата : Version 2
Размер файла : 5,57 Гбайт
Продолжительность : 1 ч. 21 м.
Общий поток : 9765 Кбит/сек
Дата кодирования : UTC 2013-01-12 10:33:34
Программа кодирования : mkvmerge v5.6.0 ('Kenya Kane') built on Jun 29 2012 15:01:44
Библиотека кодирования : libebml v1.2.3 + libmatroska v1.3.0
Видео
Идентификатор : 1
Формат : AVC
Формат/Информация : Advanced Video Codec
Профиль формата : [email protected]
Параметр CABAC формата : Да
Параметр ReFrames формата : 5 кадров
Режим смешивания : Header stripping
Идентификатор кодека : V_MPEG4/ISO/AVC
Продолжительность : 1 ч. 21 м.
Битрейт : 6103 Кбит/сек
Ширина : 1920 пикселей
Высота : 816 пикселей
Соотношение сторон : 2,35:1
Режим частоты кадров : Постоянный
Частота кадров : 23,976 кадра/сек
Цветовое пространство : YUV
Субдискретизация насыщенности : 4:2:0
Битовая глубина : 8 бит
Тип развёртки : Прогрессивная
Бит/(Пиксели*Кадры) : 0.162
Размер потока : 3,48 Гбайт (63%)
Библиотека кодирования : x264 core 125 r2200 999b753
Настройки программы : cabac=1 / ref=5 / deblock=1:0:0 / analyse=0x3:0x113 / me=umh / subme=7 / psy=1 / psy_rd=1.00:0.00 / mixed_ref=1 / me_range=16 / chroma_me=1 / trellis=1 / 8x8dct=1 / cqm=0 / deadzone=21,11 / fast_pskip=0 / chroma_qp_offset=-2 / threads=12 / lookahead_threads=2 / sliced_threads=0 / nr=0 / decimate=1 / interlaced=0 / bluray_compat=0 / constrained_intra=0 / bframes=3 / b_pyramid=2 / b_adapt=1 / b_bias=0 / direct=1 / weightb=1 / open_gop=0 / weightp=2 / keyint=250 / keyint_min=23 / scenecut=40 / intra_refresh=0 / rc_lookahead=40 / rc=crf / mbtree=1 / crf=20.0 / qcomp=0.60 / qpmin=0 / qpmax=69 / qpstep=4 / ip_ratio=1.40 / aq=1:1.00
Язык : German
Default : Нет
Forced : Нет
Аудио #1
Идентификатор : 2
Формат : AC-3
Формат/Информация : Audio Coding 3
Расширение режима : CM (complete main)
Параметр Endianness формата : Big
Режим смешивания : Header stripping
Идентификатор кодека : A_AC3
Продолжительность : 1 ч. 21 м.
Вид битрейта : Постоянный
Битрейт : 448 Кбит/сек
Каналы : 6 каналов
Расположение каналов : Front: L C R, Side: L R, LFE
Частота : 48,0 КГц
Битовая глубина : 16 бит
Метод сжатия : С потерями
Размер потока : 262 Мбайт (5%)
Язык : Russian
Default : Нет
Forced : Да
Аудио #2
Идентификатор : 3
Формат : DTS
Формат/Информация : Digital Theater Systems
Режим смешивания : Header stripping
Идентификатор кодека : A_DTS
Продолжительность : 1 ч. 21 м.
Вид битрейта : Постоянный
Битрейт : 1510 Кбит/сек
Каналы : 6 каналов
Расположение каналов : Front: L C R, Side: L R, LFE
Частота : 48,0 КГц
Битовая глубина : 24 бит
Метод сжатия : С потерями
Размер потока : 882 Мбайт (15%)
Заголовок : German
Язык : German
Default : Нет
Forced : Нет
Аудио #3
Идентификатор : 4
Формат : DTS
Формат/Информация : Digital Theater Systems
Режим смешивания : Header stripping
Идентификатор кодека : A_DTS
Продолжительность : 1 ч. 21 м.
Вид битрейта : Постоянный
Битрейт : 1510 Кбит/сек
Каналы : 6 каналов
Расположение каналов : Front: L C R, Side: L R, LFE
Частота : 48,0 КГц
Битовая глубина : 24 бит
Метод сжатия : С потерями
Размер потока : 882 Мбайт (15%)
Заголовок : English
Язык : English
Default : Нет
Forced : Нет
-Скриншоты:



Время раздачи: с 10:00 до 23:00 ежедневно

[Цитировать]



Показать сообщения:    

Текущее время: 06-Дек 11:12

Часовой пояс: UTC + 3


Вы не можете начинать темы
Вы не можете отвечать на сообщения
Вы не можете редактировать свои сообщения
Вы не можете удалять свои сообщения
Вы не можете голосовать в опросах
Вы не можете прикреплять файлы к сообщениям
Вы не можете скачивать файлы

!ВНИМАНИЕ!
Сайт не предоставляет электронные версии произведений, а занимается лишь коллекционированием и каталогизацией ссылок, присылаемых и публикуемых на форуме нашими читателями. Если вы являетесь правообладателем какого-либо представленного материала и не желаете, чтобы ссылка на него находилась в нашем каталоге, свяжитесь с нами, и мы незамедлительно удалим ее. Файлы для обмена на трекере предоставлены пользователями сайта, и администрация не несет ответственности за их содержание. Просьба не заливать файлы, защищенные авторскими правами, а также файлы нелегального содержания!