[ Сегодня идет свободное скачивание без начисления Download ]


Статистика раздачи
Нет
 
   
 
Top  
 
 
-Остров Кима / Робинзон на Луне / Kimssi pyoryugi (2009) [720p] BDRip - Русское название: Робинзон на Луне
Оригинальное название: Kimssi pyoryugi
Выпущено: Южная Корея
Год выпуска: 2009
Жанр: Драма, Мелодрама, Комедия
Режиссер: Hey-jun Lee
Актеры: Min-heui Hong, Со Янг, Чон Чжэ Ён, Чон Рё Вон, Gyo-hwan Koo, Чен-вон Ли, Sang-hun Lee, Sang-il Lee, Kyeong-jin Min, Ри Мин
Описание фильма:
Неудачник Ким решает свести счёты с жизнью, бросившись с моста в реку Хан. Он не умеет плавать, так что смерть придёт быстро. Но по нелепой случайности его выносит на берег необитаемого острова, который находится около моста.
В это же время, одна затворница, которая уже не выходит из своей комнаты 2 года, смотрит из окна, и видит мужчину на острове, а рядом надпись «HELP».
Продолжительность: 01:56:14
Перевод: Одноголосый закадровый [Александр Райдер]
- -Качество видео: BDRip
Видеокодек: MPEG-4 AVC Video
Аудиокодек: DTS
Bидео: 1280x534 at 24.000 fps, ~4839 kb/s
Аудио# 1: Русский: DTS, 3/2 ch, ~ 1536 kb/s |Одноголосый, Александр Райдер|
Аудио# 2: Корейский: DTS, 3/2 ch, ~ 1536 kb/s

Субтитры:Русские, Английские, (не отключаемые норвежские ХАРДСАБЫ)-

MediaInfo:

Формат : Matroska
Версия формата : Version 4 / Version 2
Размер файла : 6,51 Гбайт
Продолжительность : 1 ч. 56 м.
Общий поток : 8016 Кбит/сек
Название фильма : Castaway on the Moon (2009) - Release for HDCLUB
Дата кодирования : UTC 2013-01-12 09:10:17
Программа кодирования : mkvmerge v5.9.0 ('On The Loose') built on Dec 31 2012 17:36:59
Библиотека кодирования : libebml v1.3.0 + libmatroska v1.4.0
Видео
Идентификатор : 1
Формат : AVC
Формат/Информация : Advanced Video Codec
Профиль формата : [email protected]
Параметр CABAC формата : Да
Параметр ReFrames формата : 12 кадров
Идентификатор кодека : V_MPEG4/ISO/AVC
Продолжительность : 1 ч. 56 м.
Битрейт : 4839 Кбит/сек
Ширина : 1280 пикселей
Высота : 534 пикселя
Соотношение сторон : 2,40:1
Режим частоты кадров : Постоянный
Частота кадров : 24,000 кадра/сек
Цветовое пространство : YUV
Субдискретизация насыщенности : 4:2:0
Битовая глубина : 8 бит
Тип развёртки : Прогрессивная
Бит/(Пиксели*Кадры) : 0.295
Размер потока : 3,93 Гбайт (60%)
Библиотека кодирования : x264 core 129 r2230 1cffe9f
Настройки программы : cabac=1 / ref=12 / deblock=1:-1:-1 / analyse=0x3:0x133 / me=esa / subme=11 / psy=1 / psy_rd=1.10:0.05 / mixed_ref=1 / me_range=32 / chroma_me=1 / trellis=2 / 8x8dct=1 / cqm=0 / deadzone=21,11 / fast_pskip=0 / chroma_qp_offset=-3 / threads=12 / lookahead_threads=2 / sliced_threads=0 / nr=0 / decimate=1 / interlaced=0 / bluray_compat=0 / constrained_intra=0 / bframes=9 / b_pyramid=2 / b_adapt=2 / b_bias=0 / direct=3 / weightb=1 / open_gop=0 / weightp=2 / keyint=240 / keyint_min=24 / scenecut=40 / intra_refresh=0 / rc=crf / mbtree=0 / crf=16.5 / qcomp=0.60 / qpmin=0 / qpmax=69 / qpstep=4 / ip_ratio=1.40 / pb_ratio=1.30 / aq=1:0.80
Язык : Korean
Default : Да
Forced : Нет
Основные цвета : BT.709
Характеристики трансфера : BT.709
Коэффициенты матрицы : BT.709
Аудио #1
Идентификатор : 2
Формат : DTS
Формат/Информация : Digital Theater Systems
Режим : 16
Параметр Endianness формата : Big
Идентификатор кодека : A_DTS
Продолжительность : 1 ч. 56 м.
Вид битрейта : Постоянный
Битрейт : 1509 Кбит/сек
Каналы : 6 каналов
Расположение каналов : Front: L C R, Side: L R, LFE
Частота : 48,0 КГц
Битовая глубина : 24 бит
Метод сжатия : С потерями
Размер потока : 1,23 Гбайт (19%)
Заголовок : (DTS 5.1 @ 1510 kbps - Одноголосый закадровый, Александр Райдер)
Язык : Russian
Default : Да
Forced : Нет
Аудио #2
Идентификатор : 3
Формат : DTS
Формат/Информация : Digital Theater Systems
Режим : 16
Параметр Endianness формата : Big
Идентификатор кодека : A_DTS
Продолжительность : 1 ч. 56 м.
Вид битрейта : Постоянный
Битрейт : 1509 Кбит/сек
Каналы : 6 каналов
Расположение каналов : Front: L C R, Side: L R, LFE
Частота : 48,0 КГц
Битовая глубина : 24 бит
Метод сжатия : С потерями
Размер потока : 1,23 Гбайт (19%)
Заголовок : (DTS 5.1 @ 1510 kbps - Original)
Язык : Korean
Default : Нет
Forced : Нет
Текст #1
Идентификатор : 4
Формат : UTF-8
Идентификатор кодека : S_TEXT/UTF8
Идентификатор кодека/Информация : UTF-8 Plain Text
Заголовок : SRT
Язык : Russian
Default : Нет
Forced : Нет
Текст #2
Идентификатор : 5
Формат : UTF-8
Идентификатор кодека : S_TEXT/UTF8
Идентификатор кодека/Информация : UTF-8 Plain Text
Заголовок : SRT
Язык : English
Default : Нет
Forced : Нет
Меню
00:00:00.000 : :Chapter 01
00:06:50.125 : :Chapter 02
00:14:08.708 : :Chapter 03
00:21:45.666 : :Chapter 04
00:27:27.125 : :Chapter 05
00:36:32.000 : :Chapter 06
00:44:24.583 : :Chapter 07
00:50:06.500 : :Chapter 08
00:56:58.291 : :Chapter 09
01:04:18.416 : :Chapter 10
01:13:02.500 : :Chapter 11
01:17:41.000 : :Chapter 12
01:27:42.125 : :Chapter 13
01:34:06.750 : :Chapter 14
01:42:10.625 : :Chapter 15
01:51:35.291 : :Chapter 16

Цитата:

Сохранены оригинальные чаптеры как на Blu-ray.
Особая благодарность в адрес Nez'а за выделение перевода.
Релиз на основе норвежского Blu-ray, купленного специально для HDCLUB by crazy_gringo.
Присутствуют норвежские ХАРДСАБЫ.
Скриншоты:


Время раздачи: До первых 10 скачавших

[Цитировать]



Показать сообщения:    

Текущее время: 06-Дек 13:12

Часовой пояс: UTC + 3


Вы не можете начинать темы
Вы не можете отвечать на сообщения
Вы не можете редактировать свои сообщения
Вы не можете удалять свои сообщения
Вы не можете голосовать в опросах
Вы не можете прикреплять файлы к сообщениям
Вы не можете скачивать файлы

!ВНИМАНИЕ!
Сайт не предоставляет электронные версии произведений, а занимается лишь коллекционированием и каталогизацией ссылок, присылаемых и публикуемых на форуме нашими читателями. Если вы являетесь правообладателем какого-либо представленного материала и не желаете, чтобы ссылка на него находилась в нашем каталоге, свяжитесь с нами, и мы незамедлительно удалим ее. Файлы для обмена на трекере предоставлены пользователями сайта, и администрация не несет ответственности за их содержание. Просьба не заливать файлы, защищенные авторскими правами, а также файлы нелегального содержания!