[ Сегодня идет свободное скачивание без начисления Download ]


Статистика раздачи
Нет
 
   
 
Top  
 
 
Мистер и миссис Смит / Mr. and Mrs. Smith (2005) HDRip Информация о фильме
Название: Мистер и миссис Смит
Оригинальное название: Mr. and Mrs. Smith
Год выхода: 2005
Жанр: Боевик, Триллер, Мелодрама, Комедия
Режиссер: Даг Лайман
В ролях: Брэд Питт (John Smith), Анджелина Джоли (Jane Smith), Винс Вон (Eddie), Адам Броди (Benjamin Danz), Керри Вашингтон (Jasmine), Кит Дэвид (Father), Крис Вайц (Martin Coleman), Рэйчел Хантли (Suzy Coleman), Мишель Монахэн (Gwen), Стефани Марч (Julie - Associate #1), Дженнифер Моррисон (Jade - Associate #2), Тереза Баррера (Janet - Associate #3).
Режиссёр: Даг Лайман / Doug Liman
О фильме: Обычная супружеская пара оказывается союзом двух наемных убийц, долгое время не догадывавшихся о профессии друг друга. Супруги-киллеры работают на конкурирующие организации, и однажды муж получает задание уничтожить свою жену, а она – уничтожить его.

Страна: США
Студия: Epsilon Motion Pictures, New Regency Pictures, Regency Enterprises, Summit Entertainment, Weed Road Pictures
Продолжительность: 01:59:58
Перевод: Профессиональный (полное дублирование) BD CEE | Лицензия
Субтитры: Нет
Семпл
Файл
Кодек: XviD
Качество: HDRip
Видео: 688x288 (2.39:1), 23.976 fps, XviD build 73 ~730 kbps avg, 0.15 bit/pixel
Звук: 48 kHz, MPEG Layer 3, 2 ch, ~128.00 kbps avg

MediaInfo

Общее
Полное имя : Mr.and Mrs.Smith.2005.HDRip.ot.Portablius.avi
Формат : AVI
Формат/Информация : Audio Video Interleave
Размер файла : 745 Мбайт
Продолжительность : 1 ч. 59 м.
Общий поток : 868 Кбит/сек
Программа кодирования : VirtualDubMod 1.5.10.3 | www.virtualdub-fr.org || (build 2550/release)
Библиотека кодирования : VirtualDubMod build 2550/release
Видео
Идентификатор : 0
Формат : MPEG-4 Visual
Профиль формата : Advanced Simple@L5
Параметр BVOP формата : 1
Параметр QPel формата : Нет
Параметр GMC формата : Без точки перехода
Параметр матрицы формата : Выборочная
Идентификатор кодека : XVID
Идентификатор кодека/Подсказка : XviD
Продолжительность : 1 ч. 59 м.
Битрейт : 731 Кбит/сек
Ширина : 688 пикселей
Высота : 288 пикселей
Соотношение сторон : 2,40:1
Частота кадров : 23,976 (23976/1000) кадра/сек
Цветовое пространство : YUV
Субдискретизация насыщенности : 4:2:0
Битовая глубина : 8 бит
Тип развёртки : Прогрессивная
Метод сжатия : С потерями
Бит/(Пиксели*Кадры) : 0.154
Размер потока : 627 Мбайт (84%)
Библиотека кодирования : XviD 73
Аудио
Идентификатор : 1
Формат : MPEG Audio
Версия формата : Version 1
Профиль формата : Layer 3
Идентификатор кодека : 55
Идентификатор кодека/Подсказка : MP3
Продолжительность : 1 ч. 59 м.
Вид битрейта : Постоянный
Битрейт : 128 Кбит/сек
Каналы : 2 канала
Частота : 48,0 КГц
Метод сжатия : С потерями
Размер потока : 110 Мбайт (15%)
Выравнивание : Соединение по промежуткам
Продолжительность промежутка : 42 мс. (1,00 видеокадр)
Время предзагрузки промежутка : 504 мс.
Библиотека кодирования : LAME3.99r
Настройки программы : -m s -V 4 -q 2 -lowpass 17 -b 128

Скриншоты

[Цитировать]



Показать сообщения:    

Текущее время: 07-Дек 21:21

Часовой пояс: UTC + 3


Вы не можете начинать темы
Вы не можете отвечать на сообщения
Вы не можете редактировать свои сообщения
Вы не можете удалять свои сообщения
Вы не можете голосовать в опросах
Вы не можете прикреплять файлы к сообщениям
Вы не можете скачивать файлы

!ВНИМАНИЕ!
Сайт не предоставляет электронные версии произведений, а занимается лишь коллекционированием и каталогизацией ссылок, присылаемых и публикуемых на форуме нашими читателями. Если вы являетесь правообладателем какого-либо представленного материала и не желаете, чтобы ссылка на него находилась в нашем каталоге, свяжитесь с нами, и мы незамедлительно удалим ее. Файлы для обмена на трекере предоставлены пользователями сайта, и администрация не несет ответственности за их содержание. Просьба не заливать файлы, защищенные авторскими правами, а также файлы нелегального содержания!