[ Сегодня идет свободное скачивание без начисления Download ]


Статистика раздачи
Нет
 
   
 
Top  
 
 
Выкуп / Butterfly on a Wheel (2007) BDRip 720p Информация о фильме
Название: Выкуп
Оригинальное название: Butterfly on a Wheel
Год выхода: 2007
Жанр: триллер, драма, криминал
Режиссер: Майк Баркер
В ролях: Пирс Броснан, Мария Белло, Джерард Батлер, Эмма Карванди, Клодетт Минк, Дезире Зуровски, Николас Ли, Питер Келеган, Саманта Феррис, Малкольм Стюарт
О фильме:
У Нила и Эбби Рэндалл идеальный брак и идеальная жизнь. Вместе с дочкой Софи они являются живым воплощением «американской мечты»… но мечты заканчиваются… Внезапно Софи похищают, и родителям не остается ничего другого, как согласиться на условия похитителя. В мгновения ока их жизнь оказывается в руках похитителя — Тома — социопата, которому, похоже, нечего терять. Они выполняют все более и более изощренные требования Тома, пока не становится ясно, что этому человеку нужны вовсе не их деньги — он жаждет полностью, кусочек за кусочком, разрушить жизнь Нила и Эбби, жизнь, которую они строили более 10 лет…

Страна: Великобритания, Канада, США
Студия: Butterfly Productions
Продолжительность: 01:34:48
Перевод: Дублированный
Файл
Кодек: H.264
Качество: BDRip 720p
Видео: MPEG-4 / AVC, 1280x532 (2.40:1), 24 fps ~ 5065 Kbps
Звук: DTS, 48 KHz 26 ch ~ 1510 Kb/s
Субтитры: английские

MI:

Общее
Уникальный идентификатор : 186724623710144218454426433441648177681 (0x8C79DABAFE1AB0918F19F19EE1617211)
Полное имя : Q:TorFVykup.2007.x264.BDRip.(720p).mkv
Формат : Matroska
Версия формата : Version 1
Размер файла : 4,36 Гбайт
Продолжительность : 1 ч. 34 м.
Общий поток : 6579 Кбит/сек
Название фильма : -=HANSMER=-
Дата кодирования : UTC 2009-08-23 12:05:06
Программа кодирования : mkvmerge v2.3.0 ('Freak U') built on Sep 8 2008 18:32:16
Библиотека кодирования : libebml v0.7.7 + libmatroska v0.8.1
Attachment : Yes / Yes / Yes
Видео
Идентификатор : 1
Формат : AVC
Формат/Информация : Advanced Video Codec
Профиль формата : High@L5.1
Параметр CABAC формата : Да
Параметр ReFrames формата : 8 кадров
Идентификатор кодека : V_MPEG4/ISO/AVC
Продолжительность : 1 ч. 34 м.
Битрейт : 5065 Кбит/сек
Ширина : 1280 пикселей
Высота : 532 пикселя
Соотношение сторон : 2,40:1
Частота кадров : 24,000 кадра/сек
Цветовое пространство : YUV
Субдискретизация насыщенности : 4:2:0
Битовая глубина : 8 бит
Тип развёртки : Прогрессивная
Бит/(Пиксели*Кадры) : 0.310
Размер потока : 3,27 Гбайт (75%)
Заголовок : Butterfly.on.a.Wheel.2007.720p.BluRay.x264-ESiR
Библиотека кодирования : x264 core 58 r798M 17e5dac
Настройки программы : cabac=1 / ref=8 / deblock=1:-3:-3 / analyse=0x3:0x133 / me=umh / subme=6 / me-prepass=0 / brdo=1 / mixed_ref=1 / me_range=16 / chroma_me=1 / trellis=0 / 8x8dct=1 / cqm=2 / deadzone=8,8 / chroma_qp_offset=0 / threads=6 / nr=0 / decimate=1 / mbaff=0 / bframes=3 / b_pyramid=1 / b_adapt=1 / b_bias=0 / direct=1 / wpredb=1 / bime=1 / keyint=250 / keyint_min=25 / scenecut=40(pre) / rc=2pass / bitrate=5065 / ratetol=1.0 / rceq='blurCplx^(1-qComp)' / qcomp=1.00 / qpmin=10 / qpmax=51 / qpstep=4 / cplxblur=20.0 / qblur=0.5 / ip_ratio=1.40 / pb_ratio=1.30 / aq=1:0.5:15.0
Язык : English
Default : Да
Forced : Нет
Аудио
Идентификатор : 2
Формат : DTS
Формат/Информация : Digital Theater Systems
Идентификатор кодека : A_DTS
Продолжительность : 1 ч. 34 м.
Вид битрейта : Постоянный
Битрейт : 1510 Кбит/сек
Каналы : 6 каналов
Расположение каналов : Front: L C R, Side: L R, LFE
Частота : 48,0 КГц
Битовая глубина : 24 бит
Метод сжатия : С потерями
Размер потока : 1024 Мбайт (23%)
Язык : Russian
Default : Да
Forced : Нет
Текст
Идентификатор : 3
Формат : ASS
Идентификатор кодека : S_TEXT/ASS
Идентификатор кодека/Информация : Advanced Sub Station Alpha
Метод сжатия : Без потерь
Язык : English
Default : Да
Forced : Нет
Семпл

Скриншоты

[Цитировать]



Показать сообщения:    

Текущее время: 08-Дек 12:56

Часовой пояс: UTC + 3


Вы не можете начинать темы
Вы не можете отвечать на сообщения
Вы не можете редактировать свои сообщения
Вы не можете удалять свои сообщения
Вы не можете голосовать в опросах
Вы не можете прикреплять файлы к сообщениям
Вы не можете скачивать файлы

!ВНИМАНИЕ!
Сайт не предоставляет электронные версии произведений, а занимается лишь коллекционированием и каталогизацией ссылок, присылаемых и публикуемых на форуме нашими читателями. Если вы являетесь правообладателем какого-либо представленного материала и не желаете, чтобы ссылка на него находилась в нашем каталоге, свяжитесь с нами, и мы незамедлительно удалим ее. Файлы для обмена на трекере предоставлены пользователями сайта, и администрация не несет ответственности за их содержание. Просьба не заливать файлы, защищенные авторскими правами, а также файлы нелегального содержания!