[ Сегодня идет свободное скачивание без начисления Download ]


Статистика раздачи
Нет
 
   
 
Top  
 
 
Ольга [01-15 из 20] (2016) Информация о фильме
Оригинальное название: Ольга
Год выпуска: 2016
Жанр: Комедия, драма
Режиссёр: Алексей Нужный, Игорь Волошин
В ролях: Яна Троянова, Василий Кортуков, Алина Алексеева, Ксения Суркова, Сергей Романович, Максим Костромыкин, Фархад Гусейнов, Борис Дергачев, Александр Шам, Александр Никольский
Описание:
Ольга — обычная русская женщина, которая одна «воспитывает» детей от разных браков, отца-алкоголика и бесшабашную сестру. При этом она остаётся жизнерадостной, сохраняет оптимизм и верит в «светлое» будущее.

Выпущено: Россия, Good Story Media
Продолжительность: ~ 00:23:00 / Серия
Файл
Кодек: MPEG-4 AVC
Качество: WEB-DL 720p
Видео: MPEG-4 AVC, 1280x720 (16:9), ~ 3500 Кбит/с, 25 кадр/с
Аудио: Русский, Dolby AC3, 48000 Гц, 192 Кбит/с, 2 канала
Перевод: Не требуется

Внимание! Раздача ведется путем добавления новых серий

Раздача ведется путем добавления новых серий, при каждом добавлении создается новый торрент. Чтобы начать докачку новой серии, пользователям необходимо сделать следующее:
- Остановить скачивание.
- Удалить старый торрент у себя из клиента (старые серии удалять не надо).
- Скачать новый торрент и запустить его у себя в клиенте вместо старого, при этом указать клиенту путь в старую папку куда и должно происходить скачивание новых серий.
Ваш клиент при этом должен произвести хеширование (проверку) старой папки (если не производит сам - помогите ему сделать это), и будет докачивать только те серии которых у вас еще нет. Старые серии при этом не удаляются, а продолжают раздаваться!
Если вы уже удалили старые серии, то предотвратить повторную закачку старых серий можно, отжав галочку в соответствующих местах при запуске нового торрента. По возможности, желательно не удалять старые серии как можно дольше, чтобы релизер не столько продолжал раздавать старые серии, а смог сконцентрироваться на новых.

MediaInfo

General
Unique ID : 221839142631026769855702607645303028687 (0xA6E4AA2DE8EB32EC92D7E81BCA5EBBCF)
Complete name : Ol'ga.s01.e01.2016.WEB-DL.720p.mkv
Format : Matroska
Format version : Version 4 / Version 2
File size : 600 MiB
Duration : 22mn 15s
Overall bit rate : 3 770 Kbps
Encoded date : UTC 2016-09-05 21:28:19
Writing application : mkvmerge v7.9.0 ('Birds') 64bit
Writing library : libebml v1.3.1 + libmatroska v1.4.2
Video
ID : 1
Format : AVC
Format/Info : Advanced Video Codec
Format profile : High@L3.1
Format settings, CABAC : Yes
Format settings, ReFrames : 1 frame
Format settings, GOP : M=1, N=12
Codec ID : V_MPEG4/ISO/AVC
Duration : 22mn 15s
Bit rate : 3 503 Kbps
Width : 1 280 pixels
Height : 720 pixels
Display aspect ratio : 16:9
Frame rate mode : Constant
Frame rate : 25.000 fps
Standard : Component
Color space : YUV
Chroma subsampling : 4:2:0
Bit depth : 8 bits
Scan type : Progressive
Bits/(Pixel*Frame) : 0.152
Stream size : 558 MiB (93%)
Language : Russian
Default : Yes
Forced : No
Color range : Limited
Audio
ID : 2
Format : AC-3
Format/Info : Audio Coding 3
Mode extension : CM (complete main)
Format settings, Endianness : Big
Codec ID : A_AC3
Duration : 22mn 15s
Bit rate mode : Constant
Bit rate : 192 Kbps
Channel(s) : 2 channels
Channel positions : Front: L R
Sampling rate : 48.0 KHz
Bit depth : 16 bits
Compression mode : Lossy
Stream size : 30.6 MiB (5%)
Language : Russian
Default : Yes
Forced : No

Скриншоты


[Цитировать]



Показать сообщения:    

Текущее время: 09-Дек 12:36

Часовой пояс: UTC + 3


Вы не можете начинать темы
Вы не можете отвечать на сообщения
Вы не можете редактировать свои сообщения
Вы не можете удалять свои сообщения
Вы не можете голосовать в опросах
Вы не можете прикреплять файлы к сообщениям
Вы не можете скачивать файлы

!ВНИМАНИЕ!
Сайт не предоставляет электронные версии произведений, а занимается лишь коллекционированием и каталогизацией ссылок, присылаемых и публикуемых на форуме нашими читателями. Если вы являетесь правообладателем какого-либо представленного материала и не желаете, чтобы ссылка на него находилась в нашем каталоге, свяжитесь с нами, и мы незамедлительно удалим ее. Файлы для обмена на трекере предоставлены пользователями сайта, и администрация не несет ответственности за их содержание. Просьба не заливать файлы, защищенные авторскими правами, а также файлы нелегального содержания!