[ Сегодня идет свободное скачивание без начисления Download ]


Статистика раздачи
Нет
 
   
 
Top  
 
 
-Шестое чувство / The Sixth Sense (1999) BDRip- Русское название: Шестое чувство
Оригинальное название: The Sixth Sense
Год выпуска: 1999
Производство: США
Жанр: Триллер, Драма, Мистика
Продолжительность: 01:47:20
Перевод: Дублированный, Многоголосый, Одноголосый
Вид субтитров: Вшитые отключаемые
Субтитры: Русские
Режиссер: М. Найт Шьямалан
Актеры: Брюс Уиллис, Хэйли Джоэл Осмент, Тони Коллетт, Оливия Уильямс, Донни Уолберг, Питер Энтони Тамбакис, Джеффри Зубернис, Брюс Норрис, Гленн Фицджералд, Миша Бартон
Описание фильма:
Детский психиатр Малкольм Кроу сталкивается со странным случаем: девятилетнего Коула посещают страшные видения — призраки умерших. Все эти люди когда-то были убиты, и теперь они обрушивают на малыша свой гнетущий страх и отчаянный гнев. Как врач, Малкольм бессилен помочь, но как человек, он пытается найти ключ к ужасному миру Коула, в котором веет дыхание смерти и распускаются страшные цветы боли.

Дата мировой премьеры: 2 августа 1999
Дата российской премьеры: 24 февраля 2000
Дата выхода DVD релиза: 31 марта 2011, «Новый Диск»
Качество видео: BDRip [1080p]
Видеокодек: MPEG-4 AVC/H.264
Видео: 1916x1080, ~11.6 Мбит/с
Аудио 1: AC3, 6 ch, 384 Кбит/с [Дублированный, Русский R5]
Аудио 2: AC3, 6 ch, 384 Кбит/с [Многоголосый, Русский R5]
Аудио 3: AC3, 2 ch, 192 Кбит/с [Одноголосый, Гаврилов (поздний)]
Аудио 4: AC3, 2 ch, 192 Кбит/с [Одноголосый, Гаврилов (ранний)]
Аудио 5: AC3, 2 ch, 192 Кбит/с [Одноголосый, А. Кашкин]
Аудио 6: DTS, 6 ch, 1510 Кбит/с [Одноголосый, Ю. Живов]
Аудио 7: DTS, 6 ch, 1510 Кбит/с [Оригинал, Английский]

MediaInfo:

Общее
Уникальный идентификатор : 226914507709364671555002802066540147086 (0xAAB624FF59A8FD5FACFFB4E593EF318E)
Полное имя : Shestoe.Chuvstvo.1999.BDRip.1080p.mkv
Формат : Matroska
Версия формата : Version 2
Размер файла : 12,2 Гбайт
Продолжительность : 1 ч. 47 м.
Общий поток : 16,3 Мбит/сек
Название фильма : ReJIiZ by BenderBEST
Дата кодирования : UTC 2012-12-15 12:04:17
Программа кодирования : mkvmerge v5.6.0 ('Kenya Kane') built on May 27 2012 16:44:04
Библиотека кодирования : libebml v1.2.3 + libmatroska v1.3.0
Attachment : Yes
Видео
Идентификатор : 1
Формат : AVC
Формат/Информация : Advanced Video Codec
Профиль формата : [email protected]
Параметр CABAC формата : Да
Параметр ReFrames формата : 4 кадра
Идентификатор кодека : V_MPEG4/ISO/AVC
Продолжительность : 1 ч. 47 м.
Битрейт : 11,6 Мбит/сек
Ширина : 1916 пикселей
Высота : 1080 пикселей
Соотношение сторон : 16:9
Частота кадров : 23,976 кадра/сек
Цветовое пространство : YUV
Субдискретизация насыщенности : 4:2:0
Битовая глубина : 8 бит
Тип развёртки : Прогрессивная
Бит/(Пиксели*Кадры) : 0.233
Размер потока : 8,68 Гбайт (71%)
Заголовок : Release for HDCLUB
Библиотека кодирования : x264 core 65 r1046M 71d34b4
Настройки программы : cabac=1 / ref=4 / deblock=1:-3:-3 / analyse=0x3:0x133 / me=umh / subme=8 / psy_rd=1.2:0.0 / mixed_ref=1 / me_range=45 / chroma_me=1 / trellis=2 / 8x8dct=1 / cqm=0 / deadzone=21,11 / chroma_qp_offset=-2 / threads=6 / nr=0 / decimate=1 / mbaff=0 / bframes=16 / b_pyramid=1 / b_adapt=2 / b_bias=0 / direct=1 / wpredb=1 / keyint=250 / keyint_min=25 / scenecut=40(pre) / rc=crf / crf=20.0 / qcomp=0.60 / qpmin=10 / qpmax=51 / qpstep=4 / ip_ratio=1.40 / pb_ratio=1.30 / aq=1:0.80
Язык : English
Default : Да
Forced : Нет
Аудио #1
Идентификатор : 2
Формат : AC-3
Формат/Информация : Audio Coding 3
Расширение режима : CM (complete main)
Идентификатор кодека : A_AC3
Продолжительность : 1 ч. 47 м.
Вид битрейта : Постоянный
Битрейт : 384 Кбит/сек
Каналы : 6 каналов
Расположение каналов : Front: L C R, Side: L R, LFE
Частота : 48,0 КГц
Битовая глубина : 16 бит
Метод сжатия : С потерями
Размер потока : 295 Мбайт (2%)
Заголовок : Дубляж
Язык : Russian
Default : Да
Forced : Нет
Аудио #2
Идентификатор : 3
Формат : AC-3
Формат/Информация : Audio Coding 3
Расширение режима : CM (complete main)
Идентификатор кодека : A_AC3
Продолжительность : 1 ч. 47 м.
Вид битрейта : Постоянный
Битрейт : 384 Кбит/сек
Каналы : 6 каналов
Расположение каналов : Front: L C R, Side: L R, LFE
Частота : 48,0 КГц
Битовая глубина : 16 бит
Метод сжатия : С потерями
Размер потока : 295 Мбайт (2%)
Заголовок : Многоголосый
Язык : Russian
Default : Нет
Forced : Нет
Аудио #3
Идентификатор : 4
Формат : AC-3
Формат/Информация : Audio Coding 3
Расширение режима : CM (complete main)
Идентификатор кодека : A_AC3
Продолжительность : 1 ч. 47 м.
Вид битрейта : Постоянный
Битрейт : 192 Кбит/сек
Каналы : 2 канала
Расположение каналов : Front: L R
Частота : 48,0 КГц
Битовая глубина : 16 бит
Метод сжатия : С потерями
Размер потока : 148 Мбайт (1%)
Заголовок : Гаврилов (поздний)
Язык : Russian
Default : Нет
Forced : Нет
Аудио #4
Идентификатор : 5
Формат : AC-3
Формат/Информация : Audio Coding 3
Расширение режима : CM (complete main)
Идентификатор кодека : A_AC3
Продолжительность : 1 ч. 47 м.
Вид битрейта : Постоянный
Битрейт : 192 Кбит/сек
Каналы : 2 канала
Расположение каналов : Front: L R
Частота : 48,0 КГц
Битовая глубина : 16 бит
Метод сжатия : С потерями
Размер потока : 148 Мбайт (1%)
Заголовок : Гаврилов (ранний)
Язык : Russian
Default : Нет
Forced : Нет
Аудио #5
Идентификатор : 6
Формат : AC-3
Формат/Информация : Audio Coding 3
Расширение режима : CM (complete main)
Идентификатор кодека : A_AC3
Продолжительность : 1 ч. 47 м.
Вид битрейта : Постоянный
Битрейт : 192 Кбит/сек
Каналы : 2 канала
Расположение каналов : Front: L R
Частота : 48,0 КГц
Битовая глубина : 16 бит
Метод сжатия : С потерями
Размер потока : 148 Мбайт (1%)
Заголовок : Кашкин
Язык : Russian
Default : Нет
Forced : Нет
Аудио #6
Идентификатор : 7
Формат : DTS
Формат/Информация : Digital Theater Systems
Идентификатор кодека : A_DTS
Продолжительность : 1 ч. 47 м.
Вид битрейта : Постоянный
Битрейт : 1510 Кбит/сек
Каналы : 6 каналов
Расположение каналов : Front: L C R, Side: L R, LFE
Частота : 48,0 КГц
Битовая глубина : 16 бит
Метод сжатия : С потерями
Размер потока : 1,13 Гбайт (9%)
Заголовок : Живов
Язык : Russian
Default : Нет
Forced : Нет
Аудио #7
Идентификатор : 8
Формат : DTS
Формат/Информация : Digital Theater Systems
Идентификатор кодека : A_DTS
Продолжительность : 1 ч. 47 м.
Вид битрейта : Постоянный
Битрейт : 1510 Кбит/сек
Каналы : 6 каналов
Расположение каналов : Front: L C R, Side: L R, LFE
Частота : 48,0 КГц
Битовая глубина : 16 бит
Метод сжатия : С потерями
Размер потока : 1,13 Гбайт (9%)
Язык : English
Default : Нет
Forced : Нет
Текст
Идентификатор : 9
Формат : UTF-8
Идентификатор кодека : S_TEXT/UTF8
Идентификатор кодека/Информация : UTF-8 Plain Text
Язык : Russian
Default : Нет
Forced : Нет
Меню
00:00:00.000 : en:Chapter 1
00:06:49.000 : en:Chapter 2
00:10:34.000 : en:Chapter 3
00:15:08.000 : en:Chapter 4
00:20:17.000 : en:Chapter 5
00:26:16.000 : en:Chapter 6
00:34:27.000 : en:Chapter 7
00:41:26.000 : en:Chapter 8
00:48:16.000 : en:Chapter 9
01:06:19.000 : en:Chapter 10
01:09:23.000 : en:Chapter 11
01:14:52.000 : en:Chapter 12
01:20:49.000 : en:Chapter 13
01:27:07.000 : en:Chapter 14
01:29:17.000 : en:Chapter 15
01:36:15.000 : en:Chapter 16
01:42:15.000 : en:Chapter 17
01:47:20.000 : en:Chapter 18
Скриншоты:


Время раздачи: Обычно с 19:00 до 00:00

[Цитировать]



Показать сообщения:    

Текущее время: 06-Дек 08:50

Часовой пояс: UTC + 3


Вы не можете начинать темы
Вы не можете отвечать на сообщения
Вы не можете редактировать свои сообщения
Вы не можете удалять свои сообщения
Вы не можете голосовать в опросах
Вы не можете прикреплять файлы к сообщениям
Вы не можете скачивать файлы

!ВНИМАНИЕ!
Сайт не предоставляет электронные версии произведений, а занимается лишь коллекционированием и каталогизацией ссылок, присылаемых и публикуемых на форуме нашими читателями. Если вы являетесь правообладателем какого-либо представленного материала и не желаете, чтобы ссылка на него находилась в нашем каталоге, свяжитесь с нами, и мы незамедлительно удалим ее. Файлы для обмена на трекере предоставлены пользователями сайта, и администрация не несет ответственности за их содержание. Просьба не заливать файлы, защищенные авторскими правами, а также файлы нелегального содержания!