[ Сегодня идет свободное скачивание без начисления Download ]


Статистика раздачи
Нет
 
   
 
Top  
 
 
-Сердце ангела / Angel Heart (1987) BDRip- Русское название: Сердце ангела
Оригинальное название: Angel Heart
Год выпуска: 1987
Производство: США, Канада, Великобритания
Жанр: Триллер, Детектив, Мистика
Продолжительность: 01:53:11
Перевод: Многоголосый закадровый, Двухголосый, Одноголосый
Субтитры: Русские, Английские
Вид субтитров: Вшитые отключаемые
Режиссер: Алан Паркер
Актеры: Микки Рурк, Роберт Де Ниро, Лиза Боне, Шарлотта Рэмплинг, Стокер Фонтелье, Брауни МакГи, Майкл Хиггинс, Элизабет Уиткрафт, Элиотт Кинер, Чарльз Гордон
Описание фильма:
К частному детективу Гарри Эйнджелу обращается некий Луис Сайфер с просьбой разыскать талантливого музыканта Джонни Фэйворита. В 1943 году мистер Сайфер заключил с Джонни один контракт, но Фэйворит, вернувшись с войны, попал в психиатрическую лечебницу, откуда впоследствии исчез… Гарри начинает расследование, однако, чем дальше продвигается он в своих поисках, тем больше загадок встречается на его пути. А обратной дороги нет: каждый, у кого сыщик пытался выведать хоть какие-то сведения о пропавшем Джонни, после разговора с Эйнджелом погибал…

Дата мировой премьеры: 6 марта 1987
Качество видео: BDRip [720p]
Видеокодек: MPEG-4 AVC/H.264
Видео: 1280x692, ~7531 Кбит/с
Аудио 1: AC3, 6 ch, 384 Кбит/с [Многоголосый, Русский R5]
Аудио 2: AC3, 6 ch, 384 Кбит/с [Многоголосый, Киномания]
Аудио 3: DTS, 6 ch, 755 Кбит/с [Двухголосый, Гланц и Королёва]
Аудио 4: DTS, 6 ch, 755 Кбит/с [Одноголосый, А. Михалёв]
Аудио 5: DTS, 6 ch, 755 Кбит/с [Одноголосый, Г. Либергал]
Аудио 6: DTS, 6 ch, 755 Кбит/с [Одноголосый, В. Завгородний]
Аудио 7: DTS, 6 ch, 755 Кбит/с [Оригинал, Английский]

MediaInfo:

Общее
Уникальный идентификатор : 223558751738691250215494334524140986818 (0xA82FD9744440DE7D912824AA8FDEA1C2)
Полное имя : Angel.Heart.1987.BDRip.720p.mkv
Формат : Matroska
Версия формата : Version 2
Размер файла : 9,56 Гбайт
Продолжительность : 1 ч. 53 м.
Общий поток : 12,1 Мбит/сек
Название фильма : Angel Heart (1987) - Release for HDCLUB
Дата кодирования : UTC 2009-12-16 20:40:16
Программа кодирования : mkvmerge v2.9.8 ('C'est le bon') built on Aug 13 2009 12:49:06
Библиотека кодирования : libebml v0.7.7 + libmatroska v0.8.1
Видео
Идентификатор : 1
Формат : AVC
Формат/Информация : Advanced Video Codec
Профиль формата : High@L4.1
Параметр CABAC формата : Да
Параметр ReFrames формата : 7 кадров
Идентификатор кодека : V_MPEG4/ISO/AVC
Продолжительность : 1 ч. 53 м.
Битрейт : 7531 Кбит/сек
Ширина : 1280 пикселей
Высота : 692 пикселя
Соотношение сторон : 1,850
Частота кадров : 23,976 кадра/сек
Цветовое пространство : YUV
Субдискретизация насыщенности : 4:2:0
Битовая глубина : 8 бит
Тип развёртки : Прогрессивная
Бит/(Пиксели*Кадры) : 0.355
Размер потока : 5,78 Гбайт (60%)
Заголовок : Release for HDCLUB
Библиотека кодирования : x264 core 79 r1354M 636f98f
Настройки программы : cabac=1 / ref=8 / deblock=1:-3:-3 / analyse=0x3:0x133 / me=esa / subme=10 / psy=1 / psy_rd=1.0:0.4 / mixed_ref=1 / me_range=24 / chroma_me=1 / trellis=2 / 8x8dct=1 / cqm=0 / deadzone=21,11 / chroma_qp_offset=-4 / threads=6 / nr=0 / decimate=0 / mbaff=0 / constrained_intra=0 / bframes=6 / b_pyramid=1 / b_adapt=2 / b_bias=0 / direct=3 / wpredb=1 / wpredp=2 / keyint=250 / keyint_min=25 / scenecut=40 / rc=2pass / mbtree=0 / bitrate=7531 / ratetol=1.0 / qcomp=0.60 / qpmin=10 / qpmax=30 / qpstep=4 / cplxblur=20.0 / qblur=0.5 / ip_ratio=1.40 / pb_ratio=1.30 / aq=1:0.70
Язык : English
Default : Нет
Forced : Нет
Аудио #1
Идентификатор : 2
Формат : AC-3
Формат/Информация : Audio Coding 3
Расширение режима : CM (complete main)
Идентификатор кодека : A_AC3
Продолжительность : 1 ч. 53 м.
Вид битрейта : Постоянный
Битрейт : 384 Кбит/сек
Каналы : 6 каналов
Расположение каналов : Front: L C R, Side: L R, LFE
Частота : 48,0 КГц
Битовая глубина : 16 бит
Метод сжатия : С потерями
Размер потока : 311 Мбайт (3%)
Заголовок : AC3 5.1 @ 384 kbps - Многоголосый закадровый, R5
Язык : Russian
Default : Да
Forced : Нет
Аудио #2
Идентификатор : 3
Формат : AC-3
Формат/Информация : Audio Coding 3
Расширение режима : CM (complete main)
Идентификатор кодека : A_AC3
Продолжительность : 1 ч. 53 м.
Вид битрейта : Постоянный
Битрейт : 384 Кбит/сек
Каналы : 6 каналов
Расположение каналов : Front: L C R, Side: L R, LFE
Частота : 48,0 КГц
Битовая глубина : 16 бит
Метод сжатия : С потерями
Размер потока : 311 Мбайт (3%)
Заголовок : AC3 5.1 @ 384 kbps - Многоголосый закадровый, Киномания
Язык : Russian
Default : Нет
Forced : Нет
Аудио #3
Идентификатор : 4
Формат : DTS
Формат/Информация : Digital Theater Systems
Идентификатор кодека : A_DTS
Продолжительность : 1 ч. 53 м.
Вид битрейта : Постоянный
Битрейт : 755 Кбит/сек
Каналы : 6 каналов
Расположение каналов : Front: L C R, Side: L R, LFE
Частота : 48,0 КГц
Битовая глубина : 24 бит
Метод сжатия : С потерями
Размер потока : 611 Мбайт (6%)
Заголовок : DTS 5.1 @ 768 kbps - Двухголосый закадровый, П.Гланц и И.Королева
Язык : Russian
Default : Нет
Forced : Нет
Аудио #4
Идентификатор : 5
Формат : DTS
Формат/Информация : Digital Theater Systems
Идентификатор кодека : A_DTS
Продолжительность : 1 ч. 53 м.
Вид битрейта : Постоянный
Битрейт : 755 Кбит/сек
Каналы : 6 каналов
Расположение каналов : Front: L C R, Side: L R, LFE
Частота : 48,0 КГц
Битовая глубина : 24 бит
Метод сжатия : С потерями
Размер потока : 611 Мбайт (6%)
Заголовок : DTS 5.1 @ 768 kbps - Одноголосый закадровый, А.Михалев
Язык : Russian
Default : Нет
Forced : Нет
Аудио #5
Идентификатор : 6
Формат : DTS
Формат/Информация : Digital Theater Systems
Идентификатор кодека : A_DTS
Продолжительность : 1 ч. 53 м.
Вид битрейта : Постоянный
Битрейт : 755 Кбит/сек
Каналы : 6 каналов
Расположение каналов : Front: L C R, Side: L R, LFE
Частота : 48,0 КГц
Битовая глубина : 24 бит
Метод сжатия : С потерями
Размер потока : 611 Мбайт (6%)
Заголовок : DTS 5.1 @ 768 kbps - Одноголосый закадровый, Г.Либергал
Язык : Russian
Default : Нет
Forced : Нет
Аудио #6
Идентификатор : 7
Формат : DTS
Формат/Информация : Digital Theater Systems
Идентификатор кодека : A_DTS
Продолжительность : 1 ч. 53 м.
Вид битрейта : Постоянный
Битрейт : 755 Кбит/сек
Каналы : 6 каналов
Расположение каналов : Front: L C R, Side: L R, LFE
Частота : 48,0 КГц
Битовая глубина : 24 бит
Метод сжатия : С потерями
Размер потока : 611 Мбайт (6%)
Заголовок : DTS 5.1 @ 768 kbps - Одноголосый закадровый, В.Завгородний
Язык : Russian
Default : Нет
Forced : Нет
Аудио #7
Идентификатор : 8
Формат : DTS
Формат/Информация : Digital Theater Systems
Идентификатор кодека : A_DTS
Продолжительность : 1 ч. 53 м.
Вид битрейта : Постоянный
Битрейт : 755 Кбит/сек
Каналы : 6 каналов
Расположение каналов : Front: L C R, Side: L R, LFE
Частота : 48,0 КГц
Битовая глубина : 24 бит
Метод сжатия : С потерями
Размер потока : 611 Мбайт (6%)
Заголовок : DTS 5.1 @ 768 kbps
Язык : English
Default : Нет
Forced : Нет
Текст #1
Идентификатор : 9
Формат : UTF-8
Идентификатор кодека : S_TEXT/UTF8
Идентификатор кодека/Информация : UTF-8 Plain Text
Язык : Russian
Default : Да
Forced : Нет
Текст #2
Идентификатор : 10
Формат : UTF-8
Идентификатор кодека : S_TEXT/UTF8
Идентификатор кодека/Информация : UTF-8 Plain Text
Язык : English
Default : Нет
Forced : Нет
Скриншоты:


Время раздачи: Обычно с 19:00 до 00:00

[Цитировать]



Показать сообщения:    

Текущее время: 08-Дек 23:11

Часовой пояс: UTC + 3


Вы не можете начинать темы
Вы не можете отвечать на сообщения
Вы не можете редактировать свои сообщения
Вы не можете удалять свои сообщения
Вы не можете голосовать в опросах
Вы не можете прикреплять файлы к сообщениям
Вы не можете скачивать файлы

!ВНИМАНИЕ!
Сайт не предоставляет электронные версии произведений, а занимается лишь коллекционированием и каталогизацией ссылок, присылаемых и публикуемых на форуме нашими читателями. Если вы являетесь правообладателем какого-либо представленного материала и не желаете, чтобы ссылка на него находилась в нашем каталоге, свяжитесь с нами, и мы незамедлительно удалим ее. Файлы для обмена на трекере предоставлены пользователями сайта, и администрация не несет ответственности за их содержание. Просьба не заливать файлы, защищенные авторскими правами, а также файлы нелегального содержания!