[ Сегодня идет свободное скачивание без начисления Download ]


Статистика раздачи
Нет
 
   
 
Top  
 
 
Overtures - Strangers In Paradise (2016) - Год: 2016
Жанр: Melodic Heavy Metal, Power Metal
Страна: Italy
Издание: Sleaszy Rider Records - SR0170
Продолжительность: 00:56:59
Кодек: FLAC
Битрейт: Lossless
Тип рипа: image + .cue
Треклист:
01. Repentance
02. Artifacts
03. Gold
04. As Candles We Burn
05. Profiled
06. Unshared Worlds
07. My Refuge
08. New Dawn, New Dusk
09. Teardrop
10. Angry Animals
11. Savior (Alternate version)

Отчёт EAC:

Exact Audio Copy V1.0 beta 4 from 7. December 2014
EAC extraction logfile from 24. September 2016, 16:21
Overtures / Artifact
Used drive  : HL-DT-STDVDRAM GU40N   Adapter: 0  ID: 1
Read mode               : Secure
Utilize accurate stream : Yes
Defeat audio cache      : Yes
Make use of C2 pointers : No
Read offset correction                      : 103
Overread into Lead-In and Lead-Out          : No
Fill up missing offset samples with silence : Yes
Delete leading and trailing silent blocks   : No
Null samples used in CRC calculations       : Yes
Used interface                              : Installed external ASPI interface
Used output format              : User Defined Encoder
Selected bitrate                : 1024 kBit/s
Quality                         : High
Add ID3 tag                     : No
Command line compressor         : C:\Program Files (x86)\AudioConverter\AudioConverter.exe
Additional command line options : FLAC
TOC of the extracted CD
     Track |   Start  |  Length  | Start sector | End sector
    ---------------------------------------------------------
        1  |  0:00.00 |  4:48.35 |         0    |    21634
        2  |  4:48.35 |  5:28.26 |     21635    |    46260
        3  | 10:16.61 |  4:42.62 |     46261    |    67472
        4  | 14:59.48 |  4:38.37 |     67473    |    88359
        5  | 19:38.10 |  4:33.02 |     88360    |   108836
        6  | 24:11.12 |  4:31.07 |    108837    |   129168
        7  | 28:42.19 |  4:19.64 |    129169    |   148657
        8  | 33:02.08 |  4:53.68 |    148658    |   170700
        9  | 37:56.01 | 10:19.73 |    170701    |   217198
       10  | 48:15.74 |  4:19.26 |    217199    |   236649
       11  | 52:35.25 |  4:23.50 |    236650    |   256424
Range status and errors
Selected range
     Filename C:\Users\workutagin\Desktop\Overtures - Artifacts 2016\Overtures - Artifact.wav
     Peak level 98.9 %
     Extraction speed 2.0 X
     Range quality 100.0 %
     Test CRC AB1D39B3
     Copy CRC AB1D39B3
     Copy OK
No errors occurred
AccurateRip summary
Track  1  not present in database
Track  2  not present in database
Track  3  not present in database
Track  4  not present in database
Track  5  not present in database
Track  6  not present in database
Track  7  not present in database
Track  8  not present in database
Track  9  not present in database
Track 10  not present in database
Track 11  not present in database
None of the tracks are present in the AccurateRip database
End of status report
==== Log checksum 1D7A332D8383CEBBB8CA67279BB8BDCACA92240D7D1A646377DF6418149D7144 ====

Cue Sheet (.cue):

REM GENRE "Heavy Metal"
REM DATE 2016
REM DISCID 9E0D5B0B
REM COMMENT "ExactAudioCopy v1.0b4"
PERFORMER "Overtures"
TITLE "Artifact"
FILE "Overtures - Artifact.flac" WAVE
  TRACK 01 AUDIO
    TITLE "Repentance"
    PERFORMER "Overtures"
    FLAGS DCP
    INDEX 01 00:00:00
  TRACK 02 AUDIO
    TITLE "Artifacts"
    PERFORMER "Overtures"
    FLAGS DCP
    INDEX 00 04:47:48
    INDEX 01 04:48:35
  TRACK 03 AUDIO
    TITLE "Gold"
    PERFORMER "Overtures"
    FLAGS DCP
    INDEX 00 10:15:08
    INDEX 01 10:16:61
  TRACK 04 AUDIO
    TITLE "As candles we burn"
    PERFORMER "Overtures"
    FLAGS DCP
    INDEX 00 14:59:14
    INDEX 01 14:59:48
  TRACK 05 AUDIO
    TITLE "Profiled"
    PERFORMER "Overtures"
    FLAGS DCP
    INDEX 00 19:37:18
    INDEX 01 19:38:10
  TRACK 06 AUDIO
    TITLE "Unshared worlds"
    PERFORMER "Overtures"
    FLAGS DCP
    INDEX 00 24:10:10
    INDEX 01 24:11:12
  TRACK 07 AUDIO
    TITLE "My refuge"
    PERFORMER "Overtures"
    FLAGS DCP
    INDEX 00 28:41:51
    INDEX 01 28:42:19
  TRACK 08 AUDIO
    TITLE "New dawn, new dusk"
    PERFORMER "Overtures"
    FLAGS DCP
    INDEX 00 33:01:55
    INDEX 01 33:02:08
  TRACK 09 AUDIO
    TITLE "Teardrop"
    PERFORMER "Overtures"
    FLAGS DCP
    INDEX 00 37:55:48
    INDEX 01 37:56:01
  TRACK 10 AUDIO
    TITLE "Angry animals"
    PERFORMER "Overtures"
    FLAGS DCP
    INDEX 00 48:15:49
    INDEX 01 48:15:74
  TRACK 11 AUDIO
    TITLE "Savior (alternative version)"
    PERFORMER "Overtures"
    FLAGS DCP
    INDEX 00 52:34:71
    INDEX 01 52:35:25

Отчёт auCDtect Task manager:

-----------------------
DON'T MODIFY THIS FILE
-----------------------
PERFORMER: auCDtect Task Manager, ver. 1.6.0 RC1 build 1.6.0.1
Copyright (c) 2008-2010 y-soft. All rights reserved
http://y-soft.org
ANALYZER: auCDtect: CD records authenticity detector, version 0.8.2
Copyright (c) 2004 Oleg Berngardt. All rights reserved.
Copyright (c) 2004 Alexander Djourik. All rights reserved.
FILE: Overtures - Artifact.flac
  Size: 400958074 Hash: 7709B0CCD2FCED6A9742FAE182923677 Accuracy: -m0
  Conclusion: CDDA 100%
  Signature: 459FEF9A54E9FF2F94A091BC64319ED8DBE8853A

[Цитировать]



Показать сообщения:    

Текущее время: 05-Дек 01:28

Часовой пояс: UTC + 3


Вы не можете начинать темы
Вы не можете отвечать на сообщения
Вы не можете редактировать свои сообщения
Вы не можете удалять свои сообщения
Вы не можете голосовать в опросах
Вы не можете прикреплять файлы к сообщениям
Вы не можете скачивать файлы

!ВНИМАНИЕ!
Сайт не предоставляет электронные версии произведений, а занимается лишь коллекционированием и каталогизацией ссылок, присылаемых и публикуемых на форуме нашими читателями. Если вы являетесь правообладателем какого-либо представленного материала и не желаете, чтобы ссылка на него находилась в нашем каталоге, свяжитесь с нами, и мы незамедлительно удалим ее. Файлы для обмена на трекере предоставлены пользователями сайта, и администрация не несет ответственности за их содержание. Просьба не заливать файлы, защищенные авторскими правами, а также файлы нелегального содержания!