[ Сегодня идет свободное скачивание без начисления Download ]


Статистика раздачи
Качаю: [ 1 ]
Скачал: [ 1 ]
 
   
 
Top  
 
 
Опасное обольщение / Oscura Seduccion
Название: Опасное обольщение
Оригинальное название: Oscura Seduccion
Год выхода: 2010
Страна: Мексика
Студия: Panamax Television, Argos Television
Продолжительность: 01:29:21
Жанр: триллер, ...
Режиссер: Мексика
В ролях: Элисабет Сервантес, Хулио Бекор, Марко Антонио Тревиньо, Клаудия Шмидт, Росио Васкез, ...
Перевод:
- Профессиональный (многоголосный, закадровый) R5
- Любительский (одноголосый, закадровый) Slavnus Spacedust
- Субтитры
О фильме: Лора работает косметическим хирургом, а Густаво становится ее практикантом. Мужчина привлекает внимание своего босса тем, что сетует на недостаток денег для продолжения его медицинского образования. Однако, этого ему мало — герой фильма намерено обольщает одинокую женщину и уже вскоре поселяется в ее доме. Поняв, что поспешила с серьезными отношениями, Лора просит любовника съехать. Но ей еще только предстоит узнать, каков он на самом деле…

Кодек: x264
Качество: BDRip 1080p
Видео: 1920x1080, 12000 kbps, 24 fps
Аудио #1: AC-3, 6 ch, 384 kbps (Rus) - MVO R5
Аудио #2: AC-3, 2 ch, 224 kbps (Rus) - VO Slavnus Spacedust
Аудио #3: AC-3, 6 ch, 384 kbps (Spa)
Субтитры: Русские, Английские

Дополнительная информация

За исходник спасибо - GORENOISE

MediaInfo

x264 [info]: frame I:739 Avg QP:12.47 size:199182
x264 [info]: frame P:27580 Avg QP:14.54 size:112357
x264 [info]: frame B:100357 Avg QP:16.84 size: 47743
x264 [info]: consecutive B-frames: 1.5% 2.7% 7.9% 17.6% 22.3% 39.3% 5.8% 0.5% 1.0% 0.2% 0.2% 0.1% 0.8%
Общее
Уникальный идентификатор : 209907128972955503475498763681956234687 (0x9DEAA47C6218B75EAE82256397CA05BF)
Полное имя : Опасное обольщение (Oscura Seduccion) 2010 BDRip 1080p.mkv
Формат : Matroska
Версия формата : Version 2
Размер файла : 8,11 Гбайт
Продолжительность : 1 ч. 29 м.
Общий поток : 13,0 Мбит/сек
Дата кодирования : UTC 2016-09-28 06:30:07
Программа кодирования : mkvmerge v4.0.0 ('The Stars were mine') сборка от Jun 6 2010 16:18:42
Библиотека кодирования : libebml v1.0.0 + libmatroska v1.0.0
Видео
Идентификатор : 1
Формат : AVC
Формат/Информация : Advanced Video Codec
Профиль формата : High@L4.1
Параметр CABAC формата : Да
Параметр ReFrames формата : 4 кадра
Идентификатор кодека : V_MPEG4/ISO/AVC
Продолжительность : 1 ч. 29 м.
Битрейт : 12,0 Мбит/сек
Ширина : 1920 пикселей
Высота : 1080 пикселей
Соотношение сторон : 16:9
Режим частоты кадров : Постоянный
Частота кадров : 24,000 кадра/сек
Цветовое пространство : YUV
Субдискретизация насыщенности : 4:2:0
Битовая глубина : 8 бит
Тип развёртки : Прогрессивная
Бит/(Пиксели*Кадры) : 0.241
Размер потока : 7,33 Гбайт (90%)
Библиотека кодирования : x264 core 146 r2538 121396c
Настройки программы : cabac=1 / ref=4 / deblock=1:-3:-3 / analyse=0x3:0x133 / me=umh / subme=11 / psy=1 / psy_rd=1.00:0.00 / mixed_ref=1 / me_range=32 / chroma_me=1 / trellis=2 / 8x8dct=1 / cqm=0 / deadzone=21,11 / fast_pskip=0 / chroma_qp_offset=-2 / threads=12 / lookahead_threads=2 / sliced_threads=0 / nr=0 / decimate=0 / interlaced=0 / bluray_compat=0 / constrained_intra=0 / bframes=12 / b_pyramid=2 / b_adapt=2 / b_bias=0 / direct=3 / weightb=1 / open_gop=0 / weightp=2 / keyint=240 / keyint_min=23 / scenecut=40 / intra_refresh=0 / rc=2pass / mbtree=0 / bitrate=12000 / ratetol=1.0 / qcomp=0.60 / qpmin=0 / qpmax=69 / qpstep=4 / cplxblur=20.0 / qblur=0.5 / ip_ratio=1.40 / pb_ratio=1.30 / aq=1:0.80
Язык : Spanish
Default : Нет
Forced : Нет
Аудио #1
Идентификатор : 2
Формат : AC-3
Формат/Информация : Audio Coding 3
Расширение режима : CM (complete main)
Параметр Endianness формата : Big
Идентификатор кодека : A_AC3
Продолжительность : 1 ч. 29 м.
Вид битрейта : Постоянный
Битрейт : 384 Кбит/сек
Каналы : 6 каналов
Расположение каналов : Front: L C R, Side: L R, LFE
Частота : 48,0 КГц
Частота кадров : 31,250 кадров/сек (1536 spf)
Метод сжатия : С потерями
Размер потока : 245 Мбайт (3%)
Заголовок : MVO R5
Язык : Russian
Default : Нет
Forced : Нет
Аудио #2
Идентификатор : 3
Формат : AC-3
Формат/Информация : Audio Coding 3
Расширение режима : CM (complete main)
Параметр Endianness формата : Big
Идентификатор кодека : A_AC3
Продолжительность : 1 ч. 29 м.
Вид битрейта : Постоянный
Битрейт : 224 Кбит/сек
Каналы : 2 канала
Расположение каналов : Front: L R
Частота : 48,0 КГц
Частота кадров : 31,250 кадров/сек (1536 spf)
Метод сжатия : С потерями
Размер потока : 143 Мбайт (2%)
Заголовок : VO Slavnus Spacedust
Язык : Russian
Default : Нет
Forced : Нет
Аудио #3
Идентификатор : 4
Формат : AC-3
Формат/Информация : Audio Coding 3
Расширение режима : CM (complete main)
Параметр Endianness формата : Big
Идентификатор кодека : A_AC3
Продолжительность : 1 ч. 29 м.
Вид битрейта : Постоянный
Битрейт : 384 Кбит/сек
Каналы : 6 каналов
Расположение каналов : Front: L C R, Side: L R, LFE
Частота : 48,0 КГц
Частота кадров : 31,250 кадров/сек (1536 spf)
Метод сжатия : С потерями
Размер потока : 245 Мбайт (3%)
Язык : Spanish
Default : Нет
Forced : Нет
Текст #1
Идентификатор : 5
Формат : UTF-8
Идентификатор кодека : S_TEXT/UTF8
Идентификатор кодека/Информация : UTF-8 Plain Text
Язык : Russian
Default : Нет
Forced : Нет
Текст #2
Идентификатор : 6
Формат : UTF-8
Идентификатор кодека : S_TEXT/UTF8
Идентификатор кодека/Информация : UTF-8 Plain Text
Язык : English
Default : Нет
Forced : Нет

Скриншоты


[Цитировать]



Показать сообщения:    

Текущее время: 07-Дек 21:21

Часовой пояс: UTC + 3


Вы не можете начинать темы
Вы не можете отвечать на сообщения
Вы не можете редактировать свои сообщения
Вы не можете удалять свои сообщения
Вы не можете голосовать в опросах
Вы не можете прикреплять файлы к сообщениям
Вы не можете скачивать файлы

!ВНИМАНИЕ!
Сайт не предоставляет электронные версии произведений, а занимается лишь коллекционированием и каталогизацией ссылок, присылаемых и публикуемых на форуме нашими читателями. Если вы являетесь правообладателем какого-либо представленного материала и не желаете, чтобы ссылка на него находилась в нашем каталоге, свяжитесь с нами, и мы незамедлительно удалим ее. Файлы для обмена на трекере предоставлены пользователями сайта, и администрация не несет ответственности за их содержание. Просьба не заливать файлы, защищенные авторскими правами, а также файлы нелегального содержания!