[ Сегодня идет свободное скачивание без начисления Download ]


Статистика раздачи
Нет
 
   
 
Top  
 
 
-Жизнь прекрасна / La vita ? bella / Life is Beautiful (1997) BDRip- Русское название: Жизнь прекрасна
Оригинальное название: La vita ? bella / Life is Beautiful
Год выпуска: 1997
Производство: Италия
Жанр: Драма, Мелодрама, Комедия
Продолжительность: 01:56:10
Перевод: Многоголосый закадровый
Субтитры: Русские, Английские
Вид субтитров: Вшитые отключаемые
Режиссер: Роберто Бениньи
Актеры: Роберто Бениньи, Николетта Браски, Джорджио Кантарини, Джустино Дурано, Серджио Бини Бустрик, Мариса Паредес, Хорст Буххольц, Лидия Альфонси, Джулиана Лоджодиче, Америго Фонтани
Описание фильма:
Во время II Мировой войны в Италии в концлагерь были отправлены евреи, отец и его маленький сын. Жена, итальянка, добровольно последовала вслед за ними. В лагере отец сказал сыну, что все происходящее вокруг является очень большой игрой за приз в настоящий танк, который достанется тому мальчику, который сможет не попасться на глаза надзирателям. Он сделал все, чтобы сын поверил в игру и остался жив, прячась в бараке.

Дата мировой премьеры: 20 декабря 1997
Качество видео: BDRip [1080p]
Видеокодек: MPEG-4 AVC/H.264
Видео: 1920x1040, ~11.4 Мбит/с
Аудио 1: AC3, 6 ch, 384 Кбит/с [Многоголосый, Русский R5]
Аудио 2: AC3, 6 ch, 640 Кбит/с [Оригинал, Итальянский]
Аудио 3: AC3, 6 ch, 640 Кбит/с [Дублированный, Английский]

MediaInfo:

Общее
Уникальный идентификатор : 204816496279662267263150514719978885672 (0x9A1638EA8CC7F2B6BD6E43A2786B1228)
Полное имя : Life.Is.Beautiful.1997.BDRip.1080p.mkv
Формат : Matroska
Версия формата : Version 2
Размер файла : 10,6 Гбайт
Продолжительность : 1 ч. 56 м.
Общий поток : 13,1 Мбит/сек
Название фильма : Life Is Beautiful_Rip1080_HDReactor
Дата кодирования : UTC 2010-10-26 23:09:51
Программа кодирования : mkvmerge v3.4.0 ('Rapunzel') сборка от May 15 2010 09:38:20
Библиотека кодирования : libebml v0.8.0 + libmatroska v0.9.0
Видео
Идентификатор : 1
Формат : AVC
Формат/Информация : Advanced Video Codec
Профиль формата : High@L4.1
Параметр CABAC формата : Да
Параметр ReFrames формата : 4 кадра
Идентификатор кодека : V_MPEG4/ISO/AVC
Продолжительность : 1 ч. 56 м.
Битрейт : 11,4 Мбит/сек
Ширина : 1920 пикселей
Высота : 1040 пикселей
Соотношение сторон : 16:9
Частота кадров : 23,976 кадра/сек
Цветовое пространство : YUV
Субдискретизация насыщенности : 4:2:0
Битовая глубина : 8 бит
Тип развёртки : Прогрессивная
Бит/(Пиксели*Кадры) : 0.239
Размер потока : 9,06 Гбайт (85%)
Библиотека кодирования : x264 core 98 r1649 20cbe10
Настройки программы : cabac=1 / ref=4 / deblock=1:-3:-3 / analyse=0x3:0x113 / me=umh / subme=10 / psy=1 / psy_rd=0.90:0.05 / mixed_ref=1 / me_range=32 / chroma_me=1 / trellis=2 / 8x8dct=1 / cqm=0 / deadzone=21,11 / fast_pskip=0 / chroma_qp_offset=-3 / threads=6 / sliced_threads=0 / nr=0 / decimate=0 / interlaced=0 / constrained_intra=0 / bframes=7 / b_pyramid=2 / b_adapt=2 / b_bias=0 / direct=1 / weightb=1 / weightp=2 / keyint=250 / keyint_min=25 / scenecut=40 / intra_refresh=0 / rc=2pass / mbtree=0 / bitrate=11427 / ratetol=1.0 / qcomp=0.60 / qpmin=10 / qpmax=51 / qpstep=4 / cplxblur=20.0 / qblur=0.5 / ip_ratio=1.40 / pb_ratio=1.30 / aq=1:0.80
Язык : English
Default : Нет
Forced : Нет
Аудио #1
Идентификатор : 2
Формат : AC-3
Формат/Информация : Audio Coding 3
Расширение режима : CM (complete main)
Идентификатор кодека : A_AC3
Продолжительность : 1 ч. 56 м.
Вид битрейта : Постоянный
Битрейт : 384 Кбит/сек
Каналы : 6 каналов
Расположение каналов : Front: L C R, Side: L R, LFE
Частота : 48,0 КГц
Битовая глубина : 16 бит
Метод сжатия : С потерями
Размер потока : 319 Мбайт (3%)
Заголовок : Многоголосый закадровый, R5
Язык : Russian
Default : Да
Forced : Нет
Аудио #2
Идентификатор : 3
Формат : AC-3
Формат/Информация : Audio Coding 3
Расширение режима : CM (complete main)
Идентификатор кодека : A_AC3
Продолжительность : 1 ч. 56 м.
Вид битрейта : Постоянный
Битрейт : 640 Кбит/сек
Каналы : 6 каналов
Расположение каналов : Front: L C R, Side: L R, LFE
Частота : 48,0 КГц
Битовая глубина : 16 бит
Метод сжатия : С потерями
Размер потока : 532 Мбайт (5%)
Заголовок : Оригинал
Язык : Italian
Default : Нет
Forced : Нет
Аудио #3
Идентификатор : 4
Формат : AC-3
Формат/Информация : Audio Coding 3
Расширение режима : CM (complete main)
Идентификатор кодека : A_AC3
Продолжительность : 1 ч. 56 м.
Вид битрейта : Постоянный
Битрейт : 640 Кбит/сек
Каналы : 6 каналов
Расположение каналов : Front: L C R, Side: L R, LFE
Частота : 48,0 КГц
Битовая глубина : 16 бит
Метод сжатия : С потерями
Размер потока : 532 Мбайт (5%)
Заголовок : Дубляж
Язык : English
Default : Нет
Forced : Нет
Текст #1
Идентификатор : 5
Формат : UTF-8
Идентификатор кодека : S_TEXT/UTF8
Идентификатор кодека/Информация : UTF-8 Plain Text
Язык : Russian
Default : Да
Forced : Нет
Текст #2
Идентификатор : 6
Формат : UTF-8
Идентификатор кодека : S_TEXT/UTF8
Идентификатор кодека/Информация : UTF-8 Plain Text
Язык : English
Default : Нет
Forced : Нет
Меню
00:00:00.000 : en:00:00:00.000
00:05:41.883 : en:00:05:41.883
00:11:20.721 : en:00:11:20.721
00:16:43.544 : en:00:16:43.544
00:20:43.283 : en:00:20:43.283
00:25:21.561 : en:00:25:21.561
00:32:53.513 : en:00:32:53.513
00:35:57.196 : en:00:35:57.196
00:39:55.476 : en:00:39:55.476
00:47:40.440 : en:00:47:40.440
00:51:17.657 : en:00:51:17.657
00:54:11.831 : en:00:54:11.831
00:56:16.456 : en:00:56:16.456
01:02:07.306 : en:01:02:07.306
01:09:36.255 : en:01:09:36.255
01:13:45.003 : en:01:13:45.003
01:19:49.367 : en:01:19:49.367
01:22:26.024 : en:01:22:26.024
01:29:54.472 : en:01:29:54.472
01:38:55.012 : en:01:38:55.012
01:52:42.881 : en:01:52:42.881
Скриншоты:


Время раздачи: Обычно с 19:00 до 00:00

[Цитировать]



Показать сообщения:    

Текущее время: 08-Дек 05:13

Часовой пояс: UTC + 3


Вы не можете начинать темы
Вы не можете отвечать на сообщения
Вы не можете редактировать свои сообщения
Вы не можете удалять свои сообщения
Вы не можете голосовать в опросах
Вы не можете прикреплять файлы к сообщениям
Вы не можете скачивать файлы

!ВНИМАНИЕ!
Сайт не предоставляет электронные версии произведений, а занимается лишь коллекционированием и каталогизацией ссылок, присылаемых и публикуемых на форуме нашими читателями. Если вы являетесь правообладателем какого-либо представленного материала и не желаете, чтобы ссылка на него находилась в нашем каталоге, свяжитесь с нами, и мы незамедлительно удалим ее. Файлы для обмена на трекере предоставлены пользователями сайта, и администрация не несет ответственности за их содержание. Просьба не заливать файлы, защищенные авторскими правами, а также файлы нелегального содержания!