[ Сегодня идет свободное скачивание без начисления Download ]


Статистика раздачи
Нет
 
   
 
Top  
 
 
-Вечное сияние чистого разума / Eternal Sunshine of the Spotless Mind (2004) BDRip- Русское название: Вечное сияние чистого разума
Оригинальное название: Eternal Sunshine of the Spotless Mind
Год выпуска: 2004
Производство: США
Жанр: Драма, Мелодрама, Фантастика
Продолжительность: 01:47:41
Перевод: Дублированный, Одноголосый
Субтитры: Русские (4 шт.), Английские
Вид субтитров: Вшитые отключаемые
Режиссер: Мишель Гондри
Актеры: Джим Керри, Кейт Уинслет, Элайджа Вуд, Кирстен Данст, Марк Руффало, Том Уилкинсон, Томас Джей Райан, Джейн Адамс, Дэвид Кросс, Джерри Роберт Бирн
Описание фильма:
Наконец-то изобретена машина, которая позволяет избавиться от любых воспоминаний. Джоэль и Клементина решают выбросить друг друга из головы. Но в памяти Джоэля все еще живы самые нежные моменты их чувства. Чем меньше он помнит, тем больше любит. Понимая, что он просто обожает Клементину, Джоэль пытается найти способ, чтобы вернуть любимой память о прошлом. Пока еще не очень поздно… Он должен победить ненавистный компьютерный мозг во что бы то ни стало!

Дата мировой премьеры: 19 марта 2004
Дата российской премьеры: 29 апреля 2004, «Парадиз»
Дата выхода DVD релиза: 26 марта 2009, «Парадиз Медиа»
Качество видео: BDRip [720p]
Видеокодек: MPEG-4 AVC/H.264
Видео: 1280x694, ~6563 Кбит/с
Аудио 1: DTS, 6 ch, 1510 Кбит/с [Дублированный, Парадиз-ВС]
Аудио 2: DTS, 6 ch, 1510 Кбит/с [Одноголосый, В. Королёв]
Аудио 3: DTS, 6 ch, 1510 Кбит/с [Одноголосый, Е. Рудой]
Аудио 4: AC3, 6 ch, 448 Кбит/с [Одноголосый, В. Горчаков]
Аудио 5: DTS, 6 ch, 1510 Кбит/с [Оригинал, Английский]

MediaInfo:

Общее
Уникальный идентификатор : 177060059490382628125654479529595277037 (0x853486ECEDDA3934A7C511580C9E8EED)
Полное имя : Eternal.Sunshine.of.the.Spotless.Mind.2004.BDRip.720p.mkv
Формат : Matroska
Версия формата : Version 2
Размер файла : 10,0 Гбайт
Продолжительность : 1 ч. 47 м.
Общий поток : 13,3 Мбит/сек
Название фильма : Eternal Sunshine of the Spotless Mind (2004) – Release for HDCLUB
Дата кодирования : UTC 2011-10-09 18:13:27
Программа кодирования : mkvmerge v5.0.0 ('Die Wahre Liebe') built on Sep 25 2011 20:33:49
Библиотека кодирования : libebml v1.2.2 + libmatroska v1.3.0
Видео
Идентификатор : 1
Формат : AVC
Формат/Информация : Advanced Video Codec
Профиль формата : [email protected]
Параметр CABAC формата : Да
Параметр ReFrames формата : 9 кадров
Идентификатор кодека : V_MPEG4/ISO/AVC
Продолжительность : 1 ч. 47 м.
Битрейт : 6563 Кбит/сек
Ширина : 1280 пикселей
Высота : 694 пикселя
Соотношение сторон : 16:9
Частота кадров : 23,976 кадра/сек
Цветовое пространство : YUV
Субдискретизация насыщенности : 4:2:0
Битовая глубина : 8 бит
Тип развёртки : Прогрессивная
Бит/(Пиксели*Кадры) : 0.308
Размер потока : 4,94 Гбайт (49%)
Заголовок : Eternal Sunshine of the Spotless Mind (2004) – Release for HDCLUB
Библиотека кодирования : x264 core 118 r2085 8a62835
Настройки программы : cabac=1 / ref=9 / deblock=1:-3:-3 / analyse=0x3:0x113 / me=umh / subme=11 / psy=1 / psy_rd=1.05:0.00 / mixed_ref=1 / me_range=32 / chroma_me=1 / trellis=2 / 8x8dct=1 / cqm=0 / deadzone=21,11 / fast_pskip=0 / chroma_qp_offset=-3 / threads=6 / sliced_threads=0 / nr=0 / decimate=1 / interlaced=0 / bluray_compat=0 / constrained_intra=0 / bframes=9 / b_pyramid=2 / b_adapt=2 / b_bias=0 / direct=1 / weightb=1 / open_gop=0 / weightp=2 / keyint=250 / keyint_min=23 / scenecut=40 / intra_refresh=0 / rc_lookahead=60 / rc=crf / mbtree=0 / crf=18.0 / qcomp=0.65 / qpmin=0 / qpmax=69 / qpstep=4 / vbv_maxrate=50000 / vbv_bufsize=62500 / crf_max=0.0 / nal_hrd=none / ip_ratio=1.40 / pb_ratio=1.30 / aq=2:0.65
Язык : English
Default : Да
Forced : Нет
Аудио #1
Идентификатор : 2
Формат : DTS
Формат/Информация : Digital Theater Systems
Идентификатор кодека : A_DTS
Продолжительность : 1 ч. 47 м.
Вид битрейта : Постоянный
Битрейт : 1510 Кбит/сек
Каналы : 6 каналов
Расположение каналов : Front: L C R, Side: L R, LFE
Частота : 48,0 КГц
Битовая глубина : 24 бит
Метод сжатия : С потерями
Размер потока : 1,14 Гбайт (11%)
Заголовок : DTS 5.1 @ 1536 kbps – дубляж (Парадиз)
Язык : Russian
Default : Да
Forced : Нет
Аудио #2
Идентификатор : 3
Формат : DTS
Формат/Информация : Digital Theater Systems
Идентификатор кодека : A_DTS
Продолжительность : 1 ч. 47 м.
Вид битрейта : Постоянный
Битрейт : 1510 Кбит/сек
Каналы : 6 каналов
Расположение каналов : Front: L C R, Side: L R, LFE
Частота : 48,0 КГц
Битовая глубина : 16 бит
Метод сжатия : С потерями
Размер потока : 1,14 Гбайт (11%)
Заголовок : DTS 5.1 @ 1536 kbps – одноголосый закадровый (В.Королев)
Язык : Russian
Default : Нет
Forced : Нет
Аудио #3
Идентификатор : 4
Формат : DTS
Формат/Информация : Digital Theater Systems
Идентификатор кодека : A_DTS
Продолжительность : 1 ч. 47 м.
Вид битрейта : Постоянный
Битрейт : 1510 Кбит/сек
Каналы : 6 каналов
Расположение каналов : Front: L C R, Side: L R, LFE
Частота : 48,0 КГц
Битовая глубина : 16 бит
Метод сжатия : С потерями
Размер потока : 1,14 Гбайт (11%)
Заголовок : DTS 5.1 @ 1536 kbps – одноголосый закадровый (Е.Рудой)
Язык : Russian
Default : Нет
Forced : Нет
Аудио #4
Идентификатор : 5
Формат : AC-3
Формат/Информация : Audio Coding 3
Расширение режима : CM (complete main)
Идентификатор кодека : A_AC3
Продолжительность : 1 ч. 47 м.
Вид битрейта : Постоянный
Битрейт : 448 Кбит/сек
Каналы : 6 каналов
Расположение каналов : Front: L C R, Side: L R, LFE
Частота : 48,0 КГц
Битовая глубина : 16 бит
Метод сжатия : С потерями
Размер потока : 345 Мбайт (3%)
Заголовок : AC3 5.1 @ 448 kbps – одноголосый закадровый (В.Горчаков)
Язык : Russian
Default : Нет
Forced : Нет
Аудио #5
Идентификатор : 6
Формат : DTS
Формат/Информация : Digital Theater Systems
Идентификатор кодека : A_DTS
Продолжительность : 1 ч. 47 м.
Вид битрейта : Постоянный
Битрейт : 1510 Кбит/сек
Каналы : 6 каналов
Расположение каналов : Front: L C R, Side: L R, LFE
Частота : 48,0 КГц
Битовая глубина : 16 бит
Метод сжатия : С потерями
Размер потока : 1,14 Гбайт (11%)
Заголовок : DTS 5.1 @ 1536 kbps
Язык : English
Default : Нет
Forced : Нет
Текст #1
Идентификатор : 7
Формат : UTF-8
Идентификатор кодека : S_TEXT/UTF8
Идентификатор кодека/Информация : UTF-8 Plain Text
Язык : Russian
Default : Нет
Forced : Нет
Текст #2
Идентификатор : 8
Формат : UTF-8
Идентификатор кодека : S_TEXT/UTF8
Идентификатор кодека/Информация : UTF-8 Plain Text
Язык : Russian
Default : Нет
Forced : Нет
Текст #3
Идентификатор : 9
Формат : UTF-8
Идентификатор кодека : S_TEXT/UTF8
Идентификатор кодека/Информация : UTF-8 Plain Text
Язык : Russian
Default : Нет
Forced : Нет
Текст #4
Идентификатор : 10
Формат : UTF-8
Идентификатор кодека : S_TEXT/UTF8
Идентификатор кодека/Информация : UTF-8 Plain Text
Язык : Russian
Default : Нет
Forced : Нет
Текст #5
Идентификатор : 11
Формат : UTF-8
Идентификатор кодека : S_TEXT/UTF8
Идентификатор кодека/Информация : UTF-8 Plain Text
Язык : English
Default : Нет
Forced : Нет
Меню
00:00:00.000 : en:Valentine's Day
00:03:42.722 : en:Clementine
00:10:30.754 : en:Two Blue Ruins
00:13:24.845 : en:Honeymoon on Ice
00:17:37.388 : en:Main Titles
00:19:34.839 : en:Erased
00:25:11.300 : en:Lacuna Inc.
00:28:00.303 : en:Empty Your Life...
00:35:08.063 : en:Erasing You
00:43:06.083 : en:Blessed Are the Forgetful
00:49:28.590 : en:Tangerine
00:52:13.213 : en:Wake Me Up
00:59:23.976 : en:Baby Joel
01:02:52.726 : en:Off the Map
01:15:49.920 : en:The Blameless Vestal's Lot
01:21:27.798 : en:Remember Me...
01:24:22.181 : en:Goodbye, Joel
01:31:44.664 : en:The Next Morning
01:35:51.746 : en:Change Your Heart...
01:44:05.279 : en:End Titles
Скриншоты:


Время раздачи: Обычно с 19:00 до 00:00

[Цитировать]



Показать сообщения:    

Текущее время: 06-Дек 05:56

Часовой пояс: UTC + 3


Вы не можете начинать темы
Вы не можете отвечать на сообщения
Вы не можете редактировать свои сообщения
Вы не можете удалять свои сообщения
Вы не можете голосовать в опросах
Вы не можете прикреплять файлы к сообщениям
Вы не можете скачивать файлы

!ВНИМАНИЕ!
Сайт не предоставляет электронные версии произведений, а занимается лишь коллекционированием и каталогизацией ссылок, присылаемых и публикуемых на форуме нашими читателями. Если вы являетесь правообладателем какого-либо представленного материала и не желаете, чтобы ссылка на него находилась в нашем каталоге, свяжитесь с нами, и мы незамедлительно удалим ее. Файлы для обмена на трекере предоставлены пользователями сайта, и администрация не несет ответственности за их содержание. Просьба не заливать файлы, защищенные авторскими правами, а также файлы нелегального содержания!