[ Сегодня идет свободное скачивание без начисления Download ]


Статистика раздачи
Нет
 
   
 
Top  
 
 
-Умница Уилл Хантинг / Good Will Hunting (1997) BDRip- Русское название: Умница Уилл Хантинг
Оригинальное название: Good Will Hunting
Год выпуска: 1997
Производство: США
Жанр: Драма
Продолжительность: 02:06:33
Перевод: Двухголосый закадровый, Одноголосый
Субтитры: Русские (R5, Uncensored), Украинские, Английские
Вид субтитров: Вшитые отключаемые
Режиссер: Гас Ван Сент
Актеры: Робин Уильямс, Мэтт Дэймон, Бен Аффлек, Стеллан Скарсгард, Минни Драйвер, Кейси Аффлек, Коул Хаузер, Джон Майтон, Рэйчел Маджоровски, Коллин МакКоли
Описание фильма:
Уилл Хантинг - 20-летний вундеркинд из Бостона, который то и дело ввязывается в неприятные истории. И когда полиция арестовывает его за очередную драку, профессор математики берет его под свою опеку, но при одном условии: Уилл должен пройти курс психотерапии. Сеансы «перевоспитания», начавшиеся с недоверия, постепенно перерастают в дружбу между Уиллом и его наставником.

Дата мировой премьеры: 2 декабря 1997
Дата выхода DVD релиза: 28 октября 2008, «West Video»
Качество видео: BDRip [720p]
Видеокодек: MPEG-4 AVC/H.264
Видео: 1280x694, ~8726 Кбит/с
Аудио 1: DTS, 6 ch, 1510 Кбит/с [Двухголосый, "West" R5]
Аудио 2: DTS, 6 ch, 1510 Кбит/с [Одноголосый, В. Назаров]
Аудио 3: DTS, 6 ch, 1510 Кбит/с [Одноголосый, Ю. Живов]
Аудио 4: DTS, 6 ch, 755 Кбит/с [Двухголосый, "Premier" R5]
Аудио 5: AC3, 2 ch, 256 Кбит/с [Двухголосый, "Premier" VHS]
Аудио 6: DTS, 6 ch, 1510 Кбит/с [Оригинал, Английский]
Аудио 7: AC3, 2 ch, 224 Кбит/с [Комментарии, Английский]

MediaInfo:

Общее
Уникальный идентификатор : 222536028306817764227312051578490891904 (0xA76AE14BC01F6C9EA3E31AAED3B8AE80)
Полное имя : Good.Will.Hunting.1997.BDRip.720p.mkv
Формат : Matroska
Версия формата : Version 2
Размер файла : 14,4 Гбайт
Продолжительность : 2 ч. 6 м.
Общий поток : 16,3 Мбит/сек
Название фильма : Good Will Hunting (1997) - Release for HDCLUB
Дата кодирования : UTC 2011-11-24 15:32:52
Программа кодирования : mkvmerge v4.6.0 ('Still Crazy After All These Years') сборка от Mar 10 2011 02:50:32
Библиотека кодирования : libebml v1.2.0 + libmatroska v1.1.0
Видео
Идентификатор : 1
Формат : AVC
Формат/Информация : Advanced Video Codec
Профиль формата : High@L4.1
Параметр CABAC формата : Да
Параметр ReFrames формата : 9 кадров
Идентификатор кодека : V_MPEG4/ISO/AVC
Продолжительность : 2 ч. 6 м.
Битрейт : 8726 Кбит/сек
Ширина : 1280 пикселей
Высота : 694 пикселя
Соотношение сторон : 16:9
Частота кадров : 23,976 кадра/сек
Цветовое пространство : YUV
Субдискретизация насыщенности : 4:2:0
Битовая глубина : 8 бит
Тип развёртки : Прогрессивная
Бит/(Пиксели*Кадры) : 0.410
Размер потока : 7,71 Гбайт (53%)
Заголовок : Release for HDCLUB
Библиотека кодирования : x264 core 116 r2074 2641b9e
Настройки программы : cabac=1 / ref=9 / deblock=1:-3:-3 / analyse=0x3:0x113 / me=umh / subme=10 / psy=1 / psy_rd=1.05:0.00 / mixed_ref=1 / me_range=16 / chroma_me=1 / trellis=2 / 8x8dct=1 / cqm=0 / deadzone=21,11 / fast_pskip=0 / chroma_qp_offset=-2 / threads=6 / sliced_threads=0 / nr=0 / decimate=0 / interlaced=0 / bluray_compat=0 / constrained_intra=0 / bframes=7 / b_pyramid=2 / b_adapt=2 / b_bias=0 / direct=3 / weightb=1 / open_gop=0 / weightp=2 / keyint=250 / keyint_min=23 / scenecut=40 / intra_refresh=0 / rc=crf / mbtree=0 / crf=17.5 / qcomp=0.60 / qpmin=0 / qpmax=69 / qpstep=4 / ip_ratio=1.40 / pb_ratio=1.30 / aq=1:0.75
Язык : English
Default : Да
Forced : Нет
Аудио #1
Идентификатор : 2
Формат : DTS
Формат/Информация : Digital Theater Systems
Идентификатор кодека : A_DTS
Продолжительность : 2 ч. 6 м.
Вид битрейта : Постоянный
Битрейт : 1510 Кбит/сек
Каналы : 6 каналов
Расположение каналов : Front: L C R, Side: L R, LFE
Частота : 48,0 КГц
Битовая глубина : 24 бит
Метод сжатия : С потерями
Размер потока : 1,33 Гбайт (9%)
Заголовок : Двухголосый закадровый, R5, West (DTS 5.1 1510 kbps)
Язык : Russian
Default : Да
Forced : Да
Аудио #2
Идентификатор : 3
Формат : DTS
Формат/Информация : Digital Theater Systems
Идентификатор кодека : A_DTS
Продолжительность : 2 ч. 6 м.
Вид битрейта : Постоянный
Битрейт : 1510 Кбит/сек
Каналы : 6 каналов
Расположение каналов : Front: L C R, Side: L R, LFE
Частота : 48,0 КГц
Битовая глубина : 24 бит
Метод сжатия : С потерями
Размер потока : 1,33 Гбайт (9%)
Заголовок : Одноголосый закадровый, В.Назаров (DTS 5.1 1510 kbps)
Язык : Russian
Default : Нет
Forced : Нет
Аудио #3
Идентификатор : 4
Формат : DTS
Формат/Информация : Digital Theater Systems
Идентификатор кодека : A_DTS
Продолжительность : 2 ч. 6 м.
Вид битрейта : Постоянный
Битрейт : 1510 Кбит/сек
Каналы : 6 каналов
Расположение каналов : Front: L C R, Side: L R, LFE
Частота : 48,0 КГц
Битовая глубина : 24 бит
Метод сжатия : С потерями
Размер потока : 1,33 Гбайт (9%)
Заголовок : Одноголосый закадровый, Ю.Живов (DTS 5.1 1510 kbps)
Язык : Russian
Default : Нет
Forced : Нет
Аудио #4
Идентификатор : 5
Формат : DTS
Формат/Информация : Digital Theater Systems
Идентификатор кодека : A_DTS
Продолжительность : 2 ч. 6 м.
Вид битрейта : Постоянный
Битрейт : 755 Кбит/сек
Каналы : 6 каналов
Расположение каналов : Front: L C R, Side: L R, LFE
Частота : 48,0 КГц
Битовая глубина : 24 бит
Метод сжатия : С потерями
Размер потока : 683 Мбайт (5%)
Заголовок : Двухголосый закадровый, R5 Copy, Premier (DTS 5.1 755 kbps)
Язык : Russian
Default : Нет
Forced : Нет
Аудио #5
Идентификатор : 6
Формат : AC-3
Формат/Информация : Audio Coding 3
Расширение режима : CM (complete main)
Идентификатор кодека : A_AC3
Продолжительность : 2 ч. 6 м.
Вид битрейта : Постоянный
Битрейт : 256 Кбит/сек
Каналы : 2 канала
Расположение каналов : Front: L R
Частота : 48,0 КГц
Битовая глубина : 16 бит
Метод сжатия : С потерями
Размер потока : 232 Мбайт (2%)
Заголовок : Двухголосый закадровый, VHS-Rip, Premier (AC3 2.0 256 kbps)
Язык : Russian
Default : Нет
Forced : Нет
Аудио #6
Идентификатор : 7
Формат : DTS
Формат/Информация : Digital Theater Systems
Идентификатор кодека : A_DTS
Продолжительность : 2 ч. 6 м.
Вид битрейта : Постоянный
Битрейт : 1510 Кбит/сек
Каналы : 6 каналов
Расположение каналов : Front: L C R, Side: L R, LFE
Частота : 48,0 КГц
Битовая глубина : 24 бит
Метод сжатия : С потерями
Размер потока : 1,33 Гбайт (9%)
Заголовок : Original (DTS 5.1 1510 kbps)
Язык : English
Default : Нет
Forced : Нет
Аудио #7
Идентификатор : 8
Формат : AC-3
Формат/Информация : Audio Coding 3
Профиль формата : Dolby Digital
Расширение режима : CM (complete main)
Идентификатор кодека : A_AC3
Продолжительность : 2 ч. 6 м.
Вид битрейта : Постоянный
Битрейт : 224 Кбит/сек
Каналы : 2 канала
Расположение каналов : Front: L R
Частота : 48,0 КГц
Битовая глубина : 16 бит
Метод сжатия : С потерями
Размер потока : 203 Мбайт (1%)
Заголовок : Commentary with Director Gus Van Sant, Matt Damon and Ben Affleck (AC3 2.0 224 kbps)
Язык : English
Default : Нет
Forced : Нет
Текст #1
Идентификатор : 9
Формат : UTF-8
Идентификатор кодека : S_TEXT/UTF8
Идентификатор кодека/Информация : UTF-8 Plain Text
Заголовок : Russian, R5
Язык : Russian
Default : Нет
Forced : Нет
Текст #2
Идентификатор : 10
Формат : UTF-8
Идентификатор кодека : S_TEXT/UTF8
Идентификатор кодека/Информация : UTF-8 Plain Text
Заголовок : Russian, Uncensored by Uncle KiLler
Язык : Russian
Default : Нет
Forced : Нет
Текст #3
Идентификатор : 11
Формат : UTF-8
Идентификатор кодека : S_TEXT/UTF8
Идентификатор кодека/Информация : UTF-8 Plain Text
Заголовок : Ukrainian, R5
Язык : Ukrainian
Default : Нет
Forced : Нет
Текст #4
Идентификатор : 12
Формат : UTF-8
Идентификатор кодека : S_TEXT/UTF8
Идентификатор кодека/Информация : UTF-8 Plain Text
Заголовок : English
Язык : English
Default : Да
Forced : Нет
Меню
00:00:00.000 : en:Who Proved the Theorum?
00:09:43.500 : en:Cruisin' for a Bruisin'
00:15:46.404 : en:Fun at the Harvard Bar
00:28:43.388 : en:Nightmare for Therapists
00:37:14.983 : en:Session with Sean
00:52:44.411 : en:First to Talk
00:59:01.329 : en:A Visit to the Dorm
01:03:04.572 : en:When did you Know?
01:08:22.348 : en:Meeting the Guys
01:14:25.044 : en:A Difference of Opinion
01:17:54.879 : en:A Retainer, Please
01:22:44.585 : en:Take Back
01:43:49.807 : en:Different Perspectives
01:52:34.706 : en:Last Session
01:54:44.836 : en:Birthday Present
01:58:18.049 : en:Leaving

Награды и премии:

Оскар, 1998 год
Победитель:
-- Лучшая мужская роль второго плана (Робин Уильямс)
-- Лучший сценарий
Номинации:
-- Лучший фильм
-- Лучшая мужская роль (Мэтт Дэймон)
-- Лучшая женская роль второго плана (Минни Драйвер)
-- Лучший режиссер (Гас Ван Сент)
-- Лучший монтаж
-- Лучшая песня — «Miss Misery»
-- Лучший саундтрек к драматическому фильму
Золотой глобус, 1998 год
Победитель:
-- Лучший сценарий
Номинации:
-- Лучший фильм (драма)
-- Лучшая мужская роль (драма) (Мэтт Дэймон)
-- Лучшая мужская роль второго плана (Робин Уильямс)
Премия канала «MTV», 1998 год
Номинации:
-- Лучший фильм
-- Лучший экранный дуэт (Бен Аффлек, Мэтт Дэймон)
-- Лучший поцелуй (Мэтт Дэймон, Минни Драйвер)
-- Лучшая мужская роль (Мэтт Дэймон)
Берлинский кинофестиваль, 1998 год
Победитель:
-- Серебряный Медведь за выдающиеся персональные достижения (Мэтт Дэймон)
Номинации:
-- Золотой Медведь
Скриншоты:


Время раздачи: Обычно с 19:00 до 00:00

[Цитировать]



Показать сообщения:    

Текущее время: 08-Дек 21:07

Часовой пояс: UTC + 3


Вы не можете начинать темы
Вы не можете отвечать на сообщения
Вы не можете редактировать свои сообщения
Вы не можете удалять свои сообщения
Вы не можете голосовать в опросах
Вы не можете прикреплять файлы к сообщениям
Вы не можете скачивать файлы

!ВНИМАНИЕ!
Сайт не предоставляет электронные версии произведений, а занимается лишь коллекционированием и каталогизацией ссылок, присылаемых и публикуемых на форуме нашими читателями. Если вы являетесь правообладателем какого-либо представленного материала и не желаете, чтобы ссылка на него находилась в нашем каталоге, свяжитесь с нами, и мы незамедлительно удалим ее. Файлы для обмена на трекере предоставлены пользователями сайта, и администрация не несет ответственности за их содержание. Просьба не заливать файлы, защищенные авторскими правами, а также файлы нелегального содержания!