[ Сегодня идет свободное скачивание без начисления Download ]


Статистика раздачи
Нет
 
   
 
Top  
 
 
-Счастливое число Слевина / Lucky Number Slevin (2005) BDRip- Русское название: Счастливое число Слевина
Оригинальное название: Lucky Number Slevin
Год выпуска: 2005
Производство: Германия, США
Жанр: Криминал, Драма, Триллер
Продолжительность: 01:49:50
Перевод: Дублированный, Двухголосый, Одноголосый
Субтитры: Русские, Английские
Вид субтитров: Вшитые отключаемые
Режиссер: Пол МакГиган
Актеры: Джош Хартнетт, Брюс Уиллис, Люси Лью, Морган Фриман, Бен Кингсли, Майкл Рубенфильд, Питер Аутербридж, Стэнли Туччи, Кевин Чэмберлин, Дориан Миссик
Описание фильма:
Слевину не везет. Дом опечатан, девушка ушла к другому… Его друг Ник уезжает из Нью-Йорка и предлагает Слевину пожить в пустой квартире. В это время крупный криминальный авторитет по прозвищу Босс хочет рассчитаться со своим бывшим партнером Рабби за убийство сына и в отместку «заказать» его наследника.

Дата мировой премьеры: 24 февраля 2006
Дата российской премьеры: 13 апреля 2006, «Парадиз»
Дата выхода DVD релиза: 25 декабря 2008, «Парадиз Медиа»
Качество видео: BDRip [720p]
Видеокодек: MPEG-4 AVC/H.264
Видео: 1280x532, ~4990 Кбит/с
Аудио 1: DTS, 6 ch, 755 Кбит/с [Дублированный, Русский R5]
Аудио 2: DTS, 6 ch, 1510 Кбит/с [Двухголосый, Гланц и Королёва]
Аудио 3: DTS, 6 ch, 755 Кбит/с [Одноголосый, Ю. Немахов]
Аудио 4: AC3, 6 ch, 448 Кбит/с [Одноголосый, А. Гаврилов]
Аудио 5: DTS, 6 ch, 1510 Кбит/с [Оригинал, Английский]
Аудио 6: AC3, 2 ch, 192 Кбит/с [Комментарии 1, Английский]
Аудио 7: AC3, 2 ch, 192 Кбит/с [Комментарии 2, Английский]

MediaInfo:

Общее
Уникальный идентификатор : 215262805322572423727133644344819008502 (0xA1F21BB779909A84A9A8DACCD68943F6)
Полное имя : Lucky.Number.Slevin.2006.BDRip.720p.mkv
Формат : Matroska
Версия формата : Version 2
Размер файла : 7,95 Гбайт
Продолжительность : 1 ч. 50 м.
Общий поток : 10,3 Мбит/сек
Название фильма : Lucky Number Slevin (2006) - Release for HDCLUB by HANSMER
Дата кодирования : UTC 2010-12-31 14:38:54
Программа кодирования : mkvmerge v4.4.0 ('Die Wiederkehr') built on Oct 31 2010 21:52:48
Библиотека кодирования : libebml v1.0.0 + libmatroska v1.0.0
Видео
Идентификатор : 1
Формат : AVC
Формат/Информация : Advanced Video Codec
Профиль формата : [email protected]
Параметр CABAC формата : Да
Параметр ReFrames формата : 11 кадров
Идентификатор кодека : V_MPEG4/ISO/AVC
Продолжительность : 1 ч. 50 м.
Битрейт : 4990 Кбит/сек
Ширина : 1280 пикселей
Высота : 532 пикселя
Соотношение сторон : 2,40:1
Частота кадров : 23,976 кадра/сек
Цветовое пространство : YUV
Субдискретизация насыщенности : 4:2:0
Битовая глубина : 8 бит
Тип развёртки : Прогрессивная
Бит/(Пиксели*Кадры) : 0.306
Размер потока : 3,66 Гбайт (46%)
Заголовок : Release for HDCLUB by HANSMER
Библиотека кодирования : x264 core 112 r1834 a51816a
Настройки программы : cabac=1 / ref=11 / deblock=1:-3:-3 / analyse=0x3:0x113 / me=esa / subme=10 / psy=1 / psy_rd=1.00:0.00 / mixed_ref=1 / me_range=32 / chroma_me=1 / trellis=2 / 8x8dct=1 / cqm=0 / deadzone=21,11 / fast_pskip=0 / chroma_qp_offset=-2 / threads=12 / sliced_threads=0 / nr=0 / decimate=1 / interlaced=0 / constrained_intra=0 / bframes=10 / b_pyramid=2 / b_adapt=2 / b_bias=0 / direct=3 / weightb=1 / open_gop=0 / weightp=2 / keyint=250 / keyint_min=23 / scenecut=40 / intra_refresh=0 / rc_lookahead=60 / rc=2pass / mbtree=0 / bitrate=4990 / ratetol=1.0 / qcomp=0.70 / qpmin=10 / qpmax=51 / qpstep=4 / cplxblur=20.0 / qblur=0.5 / vbv_maxrate=50000 / vbv_bufsize=62500 / ip_ratio=1.40 / pb_ratio=1.30 / aq=1:1.00 / nal_hrd=none
Язык : English
Default : Да
Forced : Нет
Коэффициенты матрицы : BT.709-5, BT.1361, IEC 61966-2-4 709, SMPTE RP177
Аудио #1
Идентификатор : 2
Формат : DTS
Формат/Информация : Digital Theater Systems
Идентификатор кодека : A_DTS
Продолжительность : 1 ч. 50 м.
Вид битрейта : Постоянный
Битрейт : 755 Кбит/сек
Каналы : 6 каналов
Расположение каналов : Front: L C R, Side: L R, LFE
Частота : 48,0 КГц
Битовая глубина : 24 бит
Метод сжатия : С потерями
Размер потока : 594 Мбайт (7%)
Заголовок : DTS 5.1 768 kbps Дубляж, R5
Язык : Russian
Default : Да
Forced : Нет
Аудио #2
Идентификатор : 3
Формат : DTS
Формат/Информация : Digital Theater Systems
Идентификатор кодека : A_DTS
Продолжительность : 1 ч. 50 м.
Вид битрейта : Постоянный
Битрейт : 1510 Кбит/сек
Каналы : 6 каналов
Расположение каналов : Front: L C R, Side: L R, LFE
Частота : 48,0 КГц
Битовая глубина : 24 бит
Метод сжатия : С потерями
Размер потока : 1,16 Гбайт (15%)
Заголовок : DTS 5.1 1536 kbps Двухголосый закадровый, П.Гланц и И.Королёва
Язык : Russian
Default : Нет
Forced : Нет
Аудио #3
Идентификатор : 4
Формат : DTS
Формат/Информация : Digital Theater Systems
Идентификатор кодека : A_DTS
Продолжительность : 1 ч. 50 м.
Вид битрейта : Постоянный
Битрейт : 755 Кбит/сек
Каналы : 6 каналов
Расположение каналов : Front: L C R, Side: L R, LFE
Частота : 48,0 КГц
Битовая глубина : 24 бит
Метод сжатия : С потерями
Размер потока : 594 Мбайт (7%)
Заголовок : DTS 5.1 768 kbps Одноголосый закадровый, Ю.Немахов
Язык : Russian
Default : Нет
Forced : Нет
Аудио #4
Идентификатор : 5
Формат : AC-3
Формат/Информация : Audio Coding 3
Расширение режима : CM (complete main)
Идентификатор кодека : A_AC3
Продолжительность : 1 ч. 50 м.
Вид битрейта : Постоянный
Битрейт : 448 Кбит/сек
Каналы : 6 каналов
Расположение каналов : Front: L C R, Side: L R, LFE
Частота : 48,0 КГц
Битовая глубина : 16 бит
Метод сжатия : С потерями
Размер потока : 353 Мбайт (4%)
Заголовок : AC3 5.1 448 kbps Одноголосый закадровый, А.Гаврилов
Язык : Russian
Default : Нет
Forced : Нет
Аудио #5
Идентификатор : 6
Формат : DTS
Формат/Информация : Digital Theater Systems
Идентификатор кодека : A_DTS
Продолжительность : 1 ч. 50 м.
Вид битрейта : Постоянный
Битрейт : 1510 Кбит/сек
Каналы : 6 каналов
Расположение каналов : Front: L C R, Side: L R, LFE
Частота : 48,0 КГц
Битовая глубина : 24 бит
Метод сжатия : С потерями
Размер потока : 1,16 Гбайт (15%)
Заголовок : DTS 5.1 1536 kbps
Язык : English
Default : Нет
Forced : Нет
Аудио #6
Идентификатор : 7
Формат : AC-3
Формат/Информация : Audio Coding 3
Расширение режима : CM (complete main)
Идентификатор кодека : A_AC3
Продолжительность : 1 ч. 50 м.
Вид битрейта : Постоянный
Битрейт : 192 Кбит/сек
Каналы : 2 канала
Расположение каналов : Front: L R
Частота : 48,0 КГц
Битовая глубина : 16 бит
Метод сжатия : С потерями
Размер потока : 151 Мбайт (2%)
Заголовок : AC3 2.0 192 kbps Commentary by Director Paul McGuigan
Язык : English
Default : Нет
Forced : Нет
Аудио #7
Идентификатор : 8
Формат : AC-3
Формат/Информация : Audio Coding 3
Расширение режима : CM (complete main)
Идентификатор кодека : A_AC3
Продолжительность : 1 ч. 50 м.
Вид битрейта : Постоянный
Битрейт : 192 Кбит/сек
Каналы : 2 канала
Расположение каналов : Front: L R
Частота : 48,0 КГц
Битовая глубина : 16 бит
Метод сжатия : С потерями
Размер потока : 151 Мбайт (2%)
Заголовок : AC3 2.0 192 kbps Commentary by Josh Hartnett, Lucy Liu & Writer Jason Smilovic
Язык : English
Default : Нет
Forced : Нет
Текст #1
Идентификатор : 9
Формат : UTF-8
Идентификатор кодека : S_TEXT/UTF8
Идентификатор кодека/Информация : UTF-8 Plain Text
Язык : Russian
Default : Нет
Forced : Нет
Текст #2
Идентификатор : 10
Формат : UTF-8
Идентификатор кодека : S_TEXT/UTF8
Идентификатор кодека/Информация : UTF-8 Plain Text
Язык : English
Default : Нет
Forced : Нет
Меню
00:00:00.000 : en:It All Begins
00:04:38.451 : en:A Kansas City Shuffle
00:17:24.050 : en:Bad Things Happen in Fours
00:24:03.574 : en:Orders Is Orders
00:28:11.530 : en:A Small Favor
00:37:18.868 : en:The Unlucky Don't Know They're Unlucky
00:43:54.639 : en:Lindsey's Investigation
00:47:13.379 : en:Cat and Mouse
00:52:13.095 : en:Detective Work
00:56:28.975 : en:Slevin Gets a Date
01:02:43.725 : en:There's Only One Bond
01:04:42.260 : en:Time to Come Clean
01:08:19.185 : en:A Nice Look for "The Fairy"
01:13:44.427 : en:"I'll Give Him a War"
01:17:37.326 : en:Old Friends Catch Up
01:22:36.833 : en:An Answer to a Question
01:40:03.963 : en:A World Class Assassin
01:45:01.552 : en:End Credits
Скриншоты:


Время раздачи: Обычно с 19:00 до 00:00

[Цитировать]



Показать сообщения:    

Текущее время: 04-Дек 01:53

Часовой пояс: UTC + 3


Вы не можете начинать темы
Вы не можете отвечать на сообщения
Вы не можете редактировать свои сообщения
Вы не можете удалять свои сообщения
Вы не можете голосовать в опросах
Вы не можете прикреплять файлы к сообщениям
Вы не можете скачивать файлы

!ВНИМАНИЕ!
Сайт не предоставляет электронные версии произведений, а занимается лишь коллекционированием и каталогизацией ссылок, присылаемых и публикуемых на форуме нашими читателями. Если вы являетесь правообладателем какого-либо представленного материала и не желаете, чтобы ссылка на него находилась в нашем каталоге, свяжитесь с нами, и мы незамедлительно удалим ее. Файлы для обмена на трекере предоставлены пользователями сайта, и администрация не несет ответственности за их содержание. Просьба не заливать файлы, защищенные авторскими правами, а также файлы нелегального содержания!