[ Today is free to download without increasing Download ]

DL-List and Torrent activity
Complete: [ 1 ]
Киборг - охотник / Cyber Tracker
Страна: США
Жанр: фантастика, боевик
Год выпуска: 1994
Продолжительность: 01:30:59
Перевод: Авторский (одноголосый закадровый) Вартан Дохалов
Cубтитры: нет
Режиссер: Ричард Пепин / Richard Pepin
В ролях: Дон "Дракон" Уилсон, Ричард Нортон, Стэйси Фостер, Стив Бертон, Эбби Долтон, Джим Маньячи, Джон Эпри, Джозеф Раскин, Дэвид Барнатэн, Арт Камачо
Описание: Эрик - секретный агент, охраняющий сенатора Дилли, вовлеченного в программу по созданию нового вида полицейских офицеров: идеального, неуязвимого Киборга-охотника. Узнав, что сенатор связан коррупцией, из его личного охранника Эрик превращается в объект охоты не только начальника охраны, но и непобедимого андроида...

Качество видео: DVDRip
Формат видео: AVI
Видео: 544x416 (1.31:1), 23.976 fps, XviD build 73 ~1007 kbps avg, 0.19 bit/pixel
Аудио: 48 kHz, MPEG Layer 3, 2 ch, ~128.00 kbps avg


Format : AVI
Format/Info : Audio Video Interleave
File size : 745 MiB
Duration : 1h 30mn
Overall bit rate : 1 145 Kbps
Writing application : VirtualDubMod | www.virtualdub-fr.org || (build 2550/release)
Writing library : VirtualDubMod build 2550/release
ID : 0
Format : MPEG-4 Visual
Format profile : Advanced Simple@L5
Format settings, BVOP : 1
Format settings, QPel : No
Format settings, GMC : No warppoints
Format settings, Matrix : Custom
Codec ID : XVID
Codec ID/Hint : XviD
Duration : 1h 30mn
Bit rate : 1 008 Kbps
Width : 544 pixels
Height : 416 pixels
Display aspect ratio : 4:3
Frame rate : 23.976 fps
Color space : YUV
Chroma subsampling : 4:2:0
Bit depth : 8 bits
Scan type : Progressive
Compression mode : Lossy
Bits/(Pixel*Frame) : 0.186
Stream size : 656 MiB (88%)
Writing library : XviD 73
ID : 1
Format : MPEG Audio
Format version : Version 1
Format profile : Layer 3
Codec ID : 55
Codec ID/Hint : MP3
Duration : 1h 30mn
Bit rate mode : Constant
Bit rate : 128 Kbps
Channel(s) : 2 channels
Sampling rate : 48.0 KHz
Compression mode : Lossy
Stream size : 83.3 MiB (11%)
Alignment : Aligned on interleaves
Interleave, duration : 42 ms (1.00 video frame)
Interleave, preload duration : 504 ms
Writing library : LAME3.99r
Encoding settings : -m s -V 4 -q 2 -lowpass 17 -b 128



Display posts:    

Current time is: 23-Oct 23:21

All times are UTC + 3

You cannot post new topics in this forum
You cannot reply to topics in this forum
You cannot edit your posts in this forum
You cannot delete your posts in this forum
You cannot vote in polls in this forum
You cannot attach files in this forum
You cannot download files in this forum

The site does not give electronic versions of products, and is engaged only in a collecting and cataloguing of the references sent and published at a forum by our readers. If you are the legal owner of any submitted material and do not wish that the reference to it was in our catalogue, contact us and we shall immediately remove her. Files for an exchange on tracker are given by users of a site, and the administration does not bear the responsibility for their maintenance. The request to not fill in the files protected by copyrights, and also files of the illegal maintenance!