[ Сегодня идет свободное скачивание без начисления Download ]


Статистика раздачи
Нет
 
   
 
Top  
 
 
-Искупление / Atonement (2007) BDRip- Русское название: Искупление
Оригинальное название: Atonement
Год выпуска: 2007
Жанр: Драма, Мелодрама, Детектив
Описание фильма:
13-летняя Бриони обладает превосходным воображением и пишет пьесы. Она знает, что сын прислуги Робби влюблен в ее старшую сестру Сесилию и та отвечает ему взаимностью. Но когда ее кузина Лола становится жертвой насильника, Бриони уверенно показывает на Робби — ее воображение дорисовывает картину насилия. Робби отправляется в тюрьму, а Сесилия отказывается верить Бриони, рождая страшную вражду между сестрами. Действие фильма начинается в 1935 году и разворачивается на фоне Второй мировой войны.
Режиссер: Джо Райт
Актеры: Кира Найтли, Джеймс МакЭвой, Ромола Гарай, Сирша Ронан, Бренда Блетин, Ванесса Редгрейв, Джуно Темпл, Джина МакКи, Альфи Оуэн-Аллен, Мишель Дункан, Харрье Уолтер, Нонсо Анози, Дэниел Мэйс
Продолжительность: 02:02:49
Перевод: Дублированный
Язык субтитров: Русские, английские, английские (для плохослышащих)
Вид субтитров: Вшитые

Видеокодек: MPEG-4 AVC/H.264
Битрейт видео: ~5226 kb/s
Размер кадра: 1280x694
Качество видео: BDRip
Аудиокодек: DTS
Аудио1: Русский DTS 5.1, 48 KHz, 768 kbps профессиональный (полное дублирование)
Аудио2: Английский DTS 5.1, 48 KHz, 1536 kbps

MediaInfo

General Complete name : Atonement.2007.BD.Rip.720p.h264.Rus.Eng.mkv
Format : Matroska
File size : 6.56 GiB
Duration : 2h 2mn
Overall bit rate : 7 642 Kbps
Encoded date : UTC 2010-01-31 20:22:10
Writing application : mkvmerge v3.1.0 ('Happy up here') built on Jan 19 2010 12:09:24
Writing library : libebml v0.7.9 + libmatroska v0.8.1
Video
ID : 1
Format : AVC
Format/Info : Advanced Video Codec
Format profile : High@L4.1
Format settings, CABAC : Yes
Format settings, ReFrames : 9 frames
Muxing mode : Container profile=Unknown@4.1
Codec ID : V_MPEG4/ISO/AVC
Duration : 2h 2mn
Bit rate : 5 226 Kbps
Nominal bit rate : 5 377 Kbps
Width : 1 280 pixels
Height : 694 pixels
Display aspect ratio : 16:9
Frame rate : 23.976 fps
Resolution : 8 bits
Colorimetry : 4:2:0
Scan type : Progressive
Bits/(Pixel*Frame) : 0.245
Stream size : 4.48 GiB (68%)
Writing library : x264 core 84 r1400M 20fa784
Encoding settings : cabac=1 / ref=9 / deblock=1:-3:-3 / analyse=0x3:0x113 / me=umh / subme=10 / psy=1 / psy_rd=1.0:0.1 / mixed_ref=1 / me_range=32 / chroma_me=1 / trellis=2 / 8x8dct=1 / cqm=0 / deadzone=21,11 / fast_pskip=0 / chroma_qp_offset=-3 / threads=6 / sliced_threads=0 / nr=0 / decimate=0 / mbaff=0 / constrained_intra=0 / bframes=8 / b_pyramid=2 / b_adapt=2 / b_bias=0 / direct=3 / wpredb=1 / wpredp=2 / keyint=240 / keyint_min=24 / scenecut=40 / intra_refresh=0 / rc_lookahead=80 / rc=2pass / mbtree=1 / bitrate=5377 / ratetol=1.0 / qcomp=0.70 / qpmin=10 / qpmax=51 / qpstep=4 / cplxblur=20.0 / qblur=0.5 / ip_ratio=1.30 / aq=1:0.80 / pulldown=0 / nal_hrd=0
Language : English
Audio #1
ID : 2
Format : DTS
Format/Info : Digital Theater Systems
Codec ID : A_DTS
Duration : 2h 2mn
Bit rate mode : Constant
Bit rate : 755 Kbps
Channel(s) : 6 channels
Channel positions : Front: L C R, Surround: L R, LFE
Sampling rate : 48.0 KHz
Resolution : 24 bits
Stream size : 663 MiB (10%)
Title : Dublyazh DTS 5.1 768 kbps
Language : Russian
Audio #2
ID : 3
Format : DTS
Format/Info : Digital Theater Systems
Codec ID : A_DTS
Duration : 2h 2mn
Bit rate mode : Constant
Bit rate : 1 510 Kbps
Channel(s) : 6 channels
Channel positions : Front: L C R, Surround: L R, LFE
Sampling rate : 48.0 KHz
Resolution : 24 bits
Stream size : 1.30 GiB (20%)
Title : DTS 5.1 1536 kbps
Language : English
Text #1
ID : 4
Format : UTF-8
Codec ID : S_TEXT/UTF8
Codec ID/Info : UTF-8 Plain Text
Language : Russian
Text #2
ID : 5
Format : UTF-8
Codec ID : S_TEXT/UTF8
Codec ID/Info : UTF-8 Plain Text
Language : English
Text #3
ID : 6
Format : UTF-8
Codec ID : S_TEXT/UTF8
Codec ID/Info : UTF-8 Plain Text
Title : SDH
Language : English
Menu
00:00:00.000 : en:First Play (Main Titles)
00:06:19.921 : en:Two Figures By A Fountain
00:13:43.281 : en:Closer Relations
00:20:16.215 : en:A Written Apology
00:25:55.387 : en:Interference
00:32:52.762 : en:Act of Love
00:38:33.353 : en:No Harm Done
00:43:24.894 : en:False Witness
00:49:24.628 : en:Serving Time
00:57:40.290 : en:Save Me
01:04:09.763 : en:By the Sea
01:10:14.794 : en:Putting Things Right
01:17:18.092 : en:Remembering
01:20:00.170 : en:Not Ready
01:25:00.595 : en:Can't Escape
01:28:37.979 : en:Wounded
01:34:17.652 : en:With My Own Eyes
01:37:28.801 : en:Telling the Truth
01:46:06.235 : en:Final Act
01:54:21.396 : en:End Titles
Скриншоты:

Время раздачи: 24/7 - круглосуточно

[Цитировать]



Показать сообщения:    

Текущее время: 19-Янв 18:08

Часовой пояс: UTC + 3


Вы не можете начинать темы
Вы не можете отвечать на сообщения
Вы не можете редактировать свои сообщения
Вы не можете удалять свои сообщения
Вы не можете голосовать в опросах
Вы не можете прикреплять файлы к сообщениям
Вы не можете скачивать файлы

!ВНИМАНИЕ!
Сайт не предоставляет электронные версии произведений, а занимается лишь коллекционированием и каталогизацией ссылок, присылаемых и публикуемых на форуме нашими читателями. Если вы являетесь правообладателем какого-либо представленного материала и не желаете, чтобы ссылка на него находилась в нашем каталоге, свяжитесь с нами, и мы незамедлительно удалим ее. Файлы для обмена на трекере предоставлены пользователями сайта, и администрация не несет ответственности за их содержание. Просьба не заливать файлы, защищенные авторскими правами, а также файлы нелегального содержания!