[ Сегодня идет свободное скачивание без начисления Download ]


Статистика раздачи
Скачал: [ 1 ]
 
   
 
Top  
 
 
Стартрек: Бесконечность / Star Trek Beyond (2016) WEB-DLRip [H.264/1080p-LQ]- Производство: США
Жанр: Фантастика, Боевик, Триллер, Приключения
Режиссер: Джастин Лин
Продюсер: Джей Джей Абрамс, Брайан Берк, Джастин Лин
Актеры: Крис Пайн, Закари Куинто, Саймон Пегг, Карл Урбан, Зои Салдана, Джон Чо, Антон Ельчин, Идрис Эльба, София Бутелла, Джо Таслим.
Описание:
Бесстрашная команда крейсера Звездного Флота «Энтерпрайз» исследует неизведанные глубины космоса. Во время этого полного опасностей путешествия герои сталкиваются с таинственной силой, ставящей под угрозу не только их миссию и стабильность Федерации, но и весь миропорядок.

Возраст: 16+ (зрителям, достигшим 16 лет)
Рейтинг MPAA: PG-13 (детям до 13 лет просмотр нежелателен)
Дата мировой премьеры: 20 июля 2016
Дата российской премьеры: 21 июля 2016
Продолжительность: 02:02:56
Качество видео: WEB-DLRip СЭМПЛ
Перевод: Дублированный (Звук c TS)
Субтитры: Отсутствуют
Реклама: Присутствуют голосовые и текстовые вставки рекламы, а также рекламный ролик.
Видео: AVC/H.264, 1912x800, 4424 кб/с
Аудио: AC3, 2 ch, 384 кб/с

Mediainfo:

Общее
Уникальный идентификатор                 : 250258095447068949633017658428617940727 (0xBC45F4BB69848F5C959D661416745EF7)
Полное имя                               : D:\Фильмы\Мои раздачи\Стартрек. Бесконечность\StarTreK.2O16.Dt.WEB-DL.1O8Op_KOSHARA.mkv
Формат                                   : Matroska
Версия формата                           : Version 2
Размер файла                             : 4,21 Гбайт
Продолжительность                        : 2 ч. 2 м.
Режим общего битрейта                    : Переменный
Общий поток                              : 4905 Кбит/сек
Дата кодирования                         : UTC 2016-09-28 22:21:43
Программа кодирования                    : mkvmerge v8.3.0 ('Over the Horizon') 64bit
Библиотека кодирования                   : libebml v1.3.1 + libmatroska v1.4.2
DURATION                                 : 02:02:56.035000000
NUMBER_OF_FRAMES                         : 176848
NUMBER_OF_BYTES                          : 4166807082
_STATISTICS_WRITING_APP                  : mkvmerge v8.3.0 ('Over the Horizon') 64bit
_STATISTICS_WRITING_DATE_UTC             : 2016-09-28 22:21:43
_STATISTICS_TAGS                         : BPS DURATION NUMBER_OF_FRAMES NUMBER_OF_BYTES
Видео
Идентификатор                            : 1
Формат                                   : AVC
Формат/Информация                        : Advanced Video Codec
Профиль формата                          : [url=mailto:High@L4.1]High@L4.1[/url]
Параметр CABAC формата                   : Да
Параметр ReFrames формата                : 5 кадров
Идентификатор кодека                     : V_MPEG4/ISO/AVC
Продолжительность                        : 2 ч. 2 м.
Вид битрейта                             : Переменный
Битрейт                                  : 4424 Кбит/сек
Максимальный битрейт                     : 4900 Кбит/сек
Ширина                                   : 1912 пикселей
Высота                                   : 800 пикселей
Соотношение сторон                       : 2,40:1
Режим частоты кадров                     : Постоянный
Частота кадров                           : 23,976 кадра/сек
Стандарт вещания                         : Component
Цветовое пространство                    : YUV
Субдискретизация насыщенности            : 4:2:0
Битовая глубина                          : 8 бит
Тип развёртки                            : Прогрессивная
Бит/(Пиксели*Кадры)                      : 0.121
Размер потока                            : 3,80 Гбайт (90%)
Default                                  : Да
Forced                                   : Нет
Основные цвета                           : BT.709
Характеристики трансфера                 : BT.709
Коэффициенты матрицы                     : BT.709
Аудио
Идентификатор                            : 2
Формат                                   : AC-3
Формат/Информация                        : Audio Coding 3
Расширение режима                        : CM (complete main)
Параметр Endianness формата              : Big
Идентификатор кодека                     : A_AC3
Продолжительность                        : 2 ч. 2 м.
Вид битрейта                             : Постоянный
Битрейт                                  : 384 Кбит/сек
Каналы                                   : 2 канала
Расположение каналов                     : Front: L R
Частота                                  : 48,0 КГц
Битовая глубина                          : 16 бит
Метод сжатия                             : С потерями
Размер потока                            : 338 Мбайт (8%)
Default                                  : Да
Forced                                   : Нет
Скриншоты:

[Цитировать]



Показать сообщения:    

Текущее время: 08-Дек 05:09

Часовой пояс: UTC + 3


Вы не можете начинать темы
Вы не можете отвечать на сообщения
Вы не можете редактировать свои сообщения
Вы не можете удалять свои сообщения
Вы не можете голосовать в опросах
Вы не можете прикреплять файлы к сообщениям
Вы не можете скачивать файлы

!ВНИМАНИЕ!
Сайт не предоставляет электронные версии произведений, а занимается лишь коллекционированием и каталогизацией ссылок, присылаемых и публикуемых на форуме нашими читателями. Если вы являетесь правообладателем какого-либо представленного материала и не желаете, чтобы ссылка на него находилась в нашем каталоге, свяжитесь с нами, и мы незамедлительно удалим ее. Файлы для обмена на трекере предоставлены пользователями сайта, и администрация не несет ответственности за их содержание. Просьба не заливать файлы, защищенные авторскими правами, а также файлы нелегального содержания!