[ Сегодня идет свободное скачивание без начисления Download ]


Статистика раздачи
Нет
 
   
 
Top  
 
 
-Город бога / Cidade de Deus / City of God (2002) BDRip- Русское название: Город бога
Оригинальное название: Cidade de Deus / City of God
Год выпуска: 2002
Производство: Бразилия, Франция
Жанр: Драма, Криминал
Продолжительность: 02:09:27
Перевод: Многоголосый, Одноголосый
Субтитры: Русские, Английские, Датские, Голландские, Финские,
Испанские, Шведские
Вид субтитров: Вшитые отключаемые
Режиссер: Фернанду Мейреллиш, Катя Лунд
Актеры: Александр Родригез, Леандро Фирмино, Феллипе Хаагенсен, Дуглас Силва, Джонатан Хаагенсен, Матеус Нахтергейл, Сеу Хорхе, Жефехандер Суплино, Алиси Брага, Эмерсон Гомес
Описание фильма:
«Город Бога» — квартал в Рио-де-Жанейро, где живут главные герои — 8-летний Ракета, мечтающий стать фотографом, и его одногодок Дадинью. Дадинью принимает участие в вооруженном ограблении, организованном живущим по соседству гангстером Кабалейрой и с согласия Кабалейры он совершает свое первое убийство...

Дата мировой премьеры: 18 мая 2002
Дата российской премьеры: 5 февраля 2004, «Кино без границ»
Дата выхода DVD релиза: 26 марта 2009, «Монолит»
Качество видео: BDRip [720p]
Видеокодек: MPEG-4 AVC/H.264
Видео: 1280x692, ~5747 Кбит/с
Аудио 1: AC3, 6 ch, 448 Кбит/с [Многоголосый, "Мега-Видео"]
Аудио 2: AC3, 6 ch, 448 Кбит/с [Одноголосый, "RUSCICO"]
Аудио 3: DTS, 6 ch, 1510 Кбит/с [Оригинал, Португальский]

MediaInfo:

Общее
Уникальный идентификатор : 199143987020570123564309169540290634483 (0x95D1BC9DED0763338E9D79F32994E2F3)
Полное имя : City.of.God.2002.BDRip.720p.mkv
Формат : Matroska
Версия формата : Version 1
Размер файла : 7,38 Гбайт
Продолжительность : 2 ч. 9 м.
Общий поток : 8158 Кбит/сек
Название фильма : City of God [2002] 720p BluRay CtrlHD - HDCLUB
Дата кодирования : UTC 2009-11-01 09:18:18
Программа кодирования : mkvmerge v2.6.0 ('Kelly watch the Stars') built on Mar 24 2009 15:23:17
Библиотека кодирования : libebml v0.7.7 + libmatroska v0.8.1
Attachment : Yes / Yes
Видео
Идентификатор : 1
Формат : AVC
Формат/Информация : Advanced Video Codec
Профиль формата : [email protected]
Параметр CABAC формата : Да
Параметр ReFrames формата : 6 кадров
Идентификатор кодека : V_MPEG4/ISO/AVC
Продолжительность : 2 ч. 9 м.
Битрейт : 5747 Кбит/сек
Ширина : 1280 пикселей
Высота : 692 пикселя
Соотношение сторон : 1,850
Частота кадров : 23,976 кадра/сек
Цветовое пространство : YUV
Субдискретизация насыщенности : 4:2:0
Битовая глубина : 8 бит
Тип развёртки : Прогрессивная
Бит/(Пиксели*Кадры) : 0.271
Размер потока : 5,05 Гбайт (69%)
Заголовок : ViDEO
Библиотека кодирования : x264 core 78 r1301M bcba15d
Настройки программы : cabac=1 / ref=6 / deblock=1:-3:-3 / analyse=0x3:0x113 / me=umh / subme=9 / psy=1 / psy_rd=0.9:0.1 / mixed_ref=1 / me_range=48 / chroma_me=1 / trellis=2 / 8x8dct=1 / cqm=0 / deadzone=21,11 / chroma_qp_offset=-3 / threads=6 / nr=0 / decimate=0 / mbaff=0 / constrained_intra=0 / bframes=6 / b_pyramid=0 / b_adapt=2 / b_bias=0 / direct=3 / wpredb=1 / keyint=250 / keyint_min=25 / scenecut=40 / rc_lookahead=40 / rc=2pass / mbtree=1 / bitrate=5747 / ratetol=1.0 / qcomp=0.60 / qpmin=10 / qpmax=51 / qpstep=4 / cplxblur=20.0 / qblur=0.5 / ip_ratio=1.40 / aq=1:0.70
Язык : English
Default : Да
Forced : Нет
Аудио #1
Идентификатор : 2
Формат : AC-3
Формат/Информация : Audio Coding 3
Расширение режима : CM (complete main)
Идентификатор кодека : A_AC3
Продолжительность : 2 ч. 9 м.
Вид битрейта : Постоянный
Битрейт : 448 Кбит/сек
Каналы : 6 каналов
Расположение каналов : Front: L C R, Side: L R, LFE
Частота : 48,0 КГц
Битовая глубина : 16 бит
Метод сжатия : С потерями
Размер потока : 415 Мбайт (5%)
Заголовок : AC3 5.1 448 Kbps [Многоголосый, Мега-Видео]
Язык : Russian
Default : Да
Forced : Нет
Аудио #2
Идентификатор : 3
Формат : AC-3
Формат/Информация : Audio Coding 3
Расширение режима : CM (complete main)
Идентификатор кодека : A_AC3
Продолжительность : 2 ч. 9 м.
Вид битрейта : Постоянный
Битрейт : 448 Кбит/сек
Каналы : 6 каналов
Расположение каналов : Front: L C R, Side: L R, LFE
Частота : 48,0 КГц
Битовая глубина : 16 бит
Метод сжатия : С потерями
Размер потока : 415 Мбайт (5%)
Заголовок : AC3 5.1 448 Kbps [Одноголосый, Лицензия]
Язык : Russian
Default : Нет
Forced : Нет
Аудио #3
Идентификатор : 4
Формат : DTS
Формат/Информация : Digital Theater Systems
Идентификатор кодека : A_DTS
Продолжительность : 2 ч. 9 м.
Вид битрейта : Постоянный
Битрейт : 1510 Кбит/сек
Каналы : 6 каналов
Расположение каналов : Front: L C R, Side: L R, LFE
Частота : 48,0 КГц
Битовая глубина : 24 бит
Метод сжатия : С потерями
Размер потока : 1,37 Гбайт (19%)
Заголовок : DTS 5.1 1536 Kbps
Язык : Portuguese
Default : Нет
Forced : Нет
Текст #1
Идентификатор : 5
Формат : UTF-8
Идентификатор кодека : S_TEXT/UTF8
Идентификатор кодека/Информация : UTF-8 Plain Text
Заголовок : RUSCICO
Язык : Russian
Default : Нет
Forced : Нет
Текст #2
Идентификатор : 6
Формат : ASS
Идентификатор кодека : S_TEXT/ASS
Идентификатор кодека/Информация : Advanced Sub Station Alpha
Метод сжатия : Без потерь
Язык : English
Default : Нет
Forced : Нет
Текст #3
Идентификатор : 7
Формат : ASS
Идентификатор кодека : S_TEXT/ASS
Идентификатор кодека/Информация : Advanced Sub Station Alpha
Метод сжатия : Без потерь
Язык : Danish
Default : Нет
Forced : Нет
Текст #4
Идентификатор : 8
Формат : ASS
Идентификатор кодека : S_TEXT/ASS
Идентификатор кодека/Информация : Advanced Sub Station Alpha
Метод сжатия : Без потерь
Язык : Dutch
Default : Нет
Forced : Нет
Текст #5
Идентификатор : 9
Формат : ASS
Идентификатор кодека : S_TEXT/ASS
Идентификатор кодека/Информация : Advanced Sub Station Alpha
Метод сжатия : Без потерь
Язык : Finnish
Default : Нет
Forced : Нет
Текст #6
Идентификатор : 10
Формат : ASS
Идентификатор кодека : S_TEXT/ASS
Идентификатор кодека/Информация : Advanced Sub Station Alpha
Метод сжатия : Без потерь
Язык : Spanish
Default : Нет
Forced : Нет
Текст #7
Идентификатор : 11
Формат : ASS
Идентификатор кодека : S_TEXT/ASS
Идентификатор кодека/Информация : Advanced Sub Station Alpha
Метод сжатия : Без потерь
Язык : Swedish
Default : Нет
Forced : Нет
Скриншоты:


Время раздачи: Обычно с 19:00 до 00:00

[Цитировать]



Показать сообщения:    

Текущее время: 04-Дек 02:55

Часовой пояс: UTC + 3


Вы не можете начинать темы
Вы не можете отвечать на сообщения
Вы не можете редактировать свои сообщения
Вы не можете удалять свои сообщения
Вы не можете голосовать в опросах
Вы не можете прикреплять файлы к сообщениям
Вы не можете скачивать файлы

!ВНИМАНИЕ!
Сайт не предоставляет электронные версии произведений, а занимается лишь коллекционированием и каталогизацией ссылок, присылаемых и публикуемых на форуме нашими читателями. Если вы являетесь правообладателем какого-либо представленного материала и не желаете, чтобы ссылка на него находилась в нашем каталоге, свяжитесь с нами, и мы незамедлительно удалим ее. Файлы для обмена на трекере предоставлены пользователями сайта, и администрация не несет ответственности за их содержание. Просьба не заливать файлы, защищенные авторскими правами, а также файлы нелегального содержания!