[ Today is free to download without increasing Download ]

DL-List and Torrent activity
Complete: [ 5 ]
Ночные стражи / Крылья (2016) HDTVRip
«Отдел борьбы с нечистью ждет новую кровь»
- Производство: Россия / Марс Медиа Энтертейнмент
Жанр: Фэнтези, Боевик
Режиссер: Эмилис Веливис
Продюсер: Вадим Горяинов, Рубен Дишдишян, Леонид Ярмольник
Актеры: Иван Янковский, Любовь Аксёнова, Леонид Ярмольник, Михаил Евланов, Сабина Ахмедова, Константин Адаев, Юрий Ваксман, Алексей Дмитриев, Денис Бузин, Евгений Косырев
Оборотни, упыри и ведьмы — существуют. Если вы до сих пор не сталкивались с ними, то это заслуга отдела по надзору за представителями альтернативной жизни.
Обычный курьер случайно становится свидетелем зачистки нечисти в одном из столичных отелей, после чего получает новую работу.
Сотрудники отдела «Н» не бессмертны, но даже вампирам они не по зубам.

Возраст: 12+ (зрителям, достигшим 12 лет)
Дата мировой премьеры: 2 сентября 2016
Дата российской премьеры: 25 августа 2016, «Вольга»
Продолжительность: 01:35:27
Качество видео: HDTVRip СЭМПЛ
Перевод: Не требуется
Субтитры: Отсутствуют
Видео: Xvid, 720x304 (2.35:1), 25.000 fps, 1656 Kbps (0.303 bit/pixel)
Аудио: AC3, 2 ch, 384 kbps, CBR


Complete name                  : C:\Фильмы\Stragi.2016.HDTVRip.avi
Format                         : AVI
Format/Info                    : Audio Video Interleave
File size                      : 1.37 GiB
Duration                       : 1h 35mn
Overall bit rate               : 2 050 Kbps
Writing application            : VirtualDubMod (build 2540/release)
Writing library                : VirtualDubMod build 2540/release
ID                             : 0
Format                         : MPEG-4 Visual
Format profile                 : Advanced Simple@L5
Format settings, BVOP          : 2
Format settings, QPel          : No
Format settings, GMC           : No warppoints
Format settings, Matrix        : Default (MPEG)
Codec ID                       : XVID
Codec ID/Hint                  : XviD
Duration                       : 1h 35mn
Bit rate                       : 1 656 Kbps
Width                          : 720 pixels
Height                         : 304 pixels
Display aspect ratio           : 2.35:1
Frame rate                     : 25.000 fps
Color space                    : YUV
Chroma subsampling             : 4:2:0
Bit depth                      : 8 bits
Scan type                      : Progressive
Compression mode               : Lossy
Bits/(Pixel*Frame)             : 0.303
Stream size                    : 1.10 GiB (81%)
Writing library                : XviD 1.2.1 (UTC 2008-12-04)
ID                             : 1
Format                         : AC-3
Format/Info                    : Audio Coding 3
Mode extension                 : CM (complete main)
Format settings, Endianness    : Big
Codec ID                       : 2000
Duration                       : 1h 35mn
Bit rate mode                  : Constant
Bit rate                       : 384 Kbps
Channel(s)                     : 2 channels
Channel positions              : Front: L R
Sampling rate                  : 48.0 KHz
Compression mode               : Lossy
Stream size                    : 262 MiB (19%)
Alignment                      : Split accross interleaves
Interleave, duration           : 40 ms (1.00 video frame)
Interleave, preload duration   : 500 ms


Display posts:    

Current time is: 25-Oct 00:46

All times are UTC + 3

You cannot post new topics in this forum
You cannot reply to topics in this forum
You cannot edit your posts in this forum
You cannot delete your posts in this forum
You cannot vote in polls in this forum
You cannot attach files in this forum
You cannot download files in this forum

The site does not give electronic versions of products, and is engaged only in a collecting and cataloguing of the references sent and published at a forum by our readers. If you are the legal owner of any submitted material and do not wish that the reference to it was in our catalogue, contact us and we shall immediately remove her. Files for an exchange on tracker are given by users of a site, and the administration does not bear the responsibility for their maintenance. The request to not fill in the files protected by copyrights, and also files of the illegal maintenance!