[ Сегодня идет свободное скачивание без начисления Download ]


Статистика раздачи
Нет
 
   
 
Top  
 
 
-Отступники / The Departed (2006) BDRip- Русское название: Отступники
Оригинальное название: The Departed
Год выпуска: 2006
Производство: США, Гонконг
Жанр: Триллер, Драма, Криминал
Продолжительность: 02:31:19
Перевод: Дублированный, Многоголосый, Двухголосый, Одноголосый
Субтитры: Русские (Киномания, REN, R5), Украинские, Английские
Вид субтитров: Вшитые отключаемые
Режиссер: Мартин Скорсезе
Актеры: Леонардо ДиКаприо, Мэтт Дэймон, Джек Николсон, Марк Уолберг, Мартин Шин, Энтони Андерсон, Вера Фармига, Алек Болдуин, Рэй Уинстоун, Кевин Корригэн
Описание фильма:
Два лучших выпускника полицейской академии оказались по разные стороны баррикады: один из них — агент мафии в рядах правоохранительных органов, другой — «крот», внедрённый в мафию. Каждый считает своим долгом обнаружить и уничтожить противника, но постоянная жизнь в искажённых реалиях меняет внутренний мир героев.

Дата мировой премьеры: 26 сентября 2006
Дата российской премьеры: 5 октября 2006, «Централ Партнершип»
Дата выхода DVD релиза: 2 ноября 2006, «CP-Digital»
Качество видео: BDRip [720p]
Видеокодек: MPEG-4 AVC/H.264
Видео: 1280x532, ~6883 Кбит/с
Аудио 1: DTS, 6 ch, 755 Кбит/с [Дублированный, Русский]
Аудио 2: DTS, 6 ch, 755 Кбит/с [Двухголосый, Гланц и Королёва]
Аудио 3: DTS, 6 ch, 755 Кбит/с [Одноголосый, Ю. Немахов]
Аудио 4: AC3, 6 ch, 384 Кбит/с [Одноголосый, А. Гаврилов]
Аудио 5: AC3, 6 ch, 384 Кбит/с [Многоголосый, Украинский]
Аудио 6: DTS, 6 ch, 1510 Кбит/с [Оригинал, Английский]

MediaInfo:

Общее
Уникальный идентификатор : 224320366204912405879462886207678433316 (0xA8C287F24D7AEE8DBEF91BF08F95C824)
Полное имя : Otstupniki.2006.BDRip.720p.mkv
Формат : Matroska
Версия формата : Version 2
Размер файла : 12,1 Гбайт
Продолжительность : 2 ч. 31 м.
Общий поток : 11,5 Мбит/сек
Название фильма : Otstupniki.2006.BDRip.720p
Дата кодирования : UTC 2013-01-08 12:33:05
Программа кодирования : mkvmerge v4.6.0 ('Still Crazy After All These Years') сборка от Mar 10 2011 02:50:32
Библиотека кодирования : libebml v1.2.0 + libmatroska v1.1.0
Видео
Идентификатор : 1
Формат : AVC
Формат/Информация : Advanced Video Codec
Профиль формата : [email protected]
Параметр CABAC формата : Да
Параметр ReFrames формата : 12 кадров
Идентификатор кодека : V_MPEG4/ISO/AVC
Продолжительность : 2 ч. 31 м.
Битрейт : 6883 Кбит/сек
Ширина : 1280 пикселей
Высота : 532 пикселя
Соотношение сторон : 2,40:1
Частота кадров : 23,976 кадра/сек
Цветовое пространство : YUV
Субдискретизация насыщенности : 4:2:0
Битовая глубина : 8 бит
Тип развёртки : Прогрессивная
Бит/(Пиксели*Кадры) : 0.422
Размер потока : 7,08 Гбайт (58%)
Заголовок : Отступники / The Departed (2006)
Библиотека кодирования : x264 core 88 r1471 1144615
Настройки программы : cabac=1 / ref=12 / deblock=1:-3:-3 / analyse=0x3:0x113 / me=tesa / subme=10 / psy=1 / psy_rd=1.00:0.05 / mixed_ref=1 / me_range=16 / chroma_me=1 / trellis=2 / 8x8dct=1 / cqm=0 / deadzone=21,11 / fast_pskip=0 / chroma_qp_offset=-3 / threads=6 / sliced_threads=0 / nr=0 / decimate=0 / mbaff=0 / constrained_intra=0 / bframes=6 / b_pyramid=2 / b_adapt=2 / b_bias=0 / direct=3 / wpredb=1 / wpredp=2 / keyint=250 / keyint_min=25 / scenecut=40 / intra_refresh=0 / rc=2pass / mbtree=0 / bitrate=6883 / ratetol=1.0 / qcomp=0.60 / qpmin=10 / qpmax=51 / qpstep=4 / cplxblur=20.0 / qblur=0.5 / ip_ratio=1.40 / pb_ratio=1.30 / aq=1:0.90
Язык : English
Default : Да
Forced : Нет
Аудио #1
Идентификатор : 2
Формат : DTS
Формат/Информация : Digital Theater Systems
Идентификатор кодека : A_DTS
Продолжительность : 2 ч. 31 м.
Вид битрейта : Постоянный
Битрейт : 755 Кбит/сек
Каналы : 6 каналов
Расположение каналов : Front: L C R, Side: L R, LFE
Частота : 48,0 КГц
Битовая глубина : 24 бит
Метод сжатия : С потерями
Задержка видео : 11 мс.
Размер потока : 817 Мбайт (7%)
Заголовок : Дублированный, Blu-Ray (DTS, 755 Кбит/с)
Язык : Russian
Default : Да
Forced : Нет
Аудио #2
Идентификатор : 3
Формат : DTS
Формат/Информация : Digital Theater Systems
Идентификатор кодека : A_DTS
Продолжительность : 2 ч. 31 м.
Вид битрейта : Постоянный
Битрейт : 755 Кбит/сек
Каналы : 6 каналов
Расположение каналов : Front: L C R, Side: L R, LFE
Частота : 48,0 КГц
Битовая глубина : 16 бит
Метод сжатия : С потерями
Задержка видео : 11 мс.
Размер потока : 817 Мбайт (7%)
Заголовок : Двухголосый, Гланц и Королёва (DTS, 755 Кбит/с)
Язык : Russian
Default : Нет
Forced : Нет
Аудио #3
Идентификатор : 4
Формат : DTS
Формат/Информация : Digital Theater Systems
Идентификатор кодека : A_DTS
Продолжительность : 2 ч. 31 м.
Вид битрейта : Постоянный
Битрейт : 755 Кбит/сек
Каналы : 6 каналов
Расположение каналов : Front: L C R, Side: L R, LFE
Частота : 48,0 КГц
Битовая глубина : 24 бит
Метод сжатия : С потерями
Задержка видео : 11 мс.
Размер потока : 817 Мбайт (7%)
Заголовок : Одноголосый, Ю. Немахов (DTS, 755 Кбит/с)
Язык : Russian
Default : Нет
Forced : Нет
Аудио #4
Идентификатор : 5
Формат : AC-3
Формат/Информация : Audio Coding 3
Расширение режима : CM (complete main)
Идентификатор кодека : A_AC3
Продолжительность : 2 ч. 31 м.
Вид битрейта : Постоянный
Битрейт : 384 Кбит/сек
Каналы : 6 каналов
Расположение каналов : Front: L C R, Side: L R, LFE
Частота : 48,0 КГц
Битовая глубина : 16 бит
Метод сжатия : С потерями
Размер потока : 416 Мбайт (3%)
Заголовок : Одноголосый, А. Гаврилов (AC3, 384 Кбит/с)
Язык : Russian
Default : Нет
Forced : Нет
Аудио #5
Идентификатор : 6
Формат : AC-3
Формат/Информация : Audio Coding 3
Расширение режима : CM (complete main)
Идентификатор кодека : A_AC3
Продолжительность : 2 ч. 31 м.
Вид битрейта : Постоянный
Битрейт : 384 Кбит/сек
Каналы : 3 канала
Расположение каналов : Front: L R, LFE
Частота : 48,0 КГц
Битовая глубина : 16 бит
Метод сжатия : С потерями
Размер потока : 416 Мбайт (3%)
Заголовок : Многоголосый, Украинский (AC3, 384 Кбит/с)
Язык : Ukrainian
Default : Нет
Forced : Нет
Аудио #6
Идентификатор : 7
Формат : DTS
Формат/Информация : Digital Theater Systems
Идентификатор кодека : A_DTS
Продолжительность : 2 ч. 31 м.
Вид битрейта : Постоянный
Битрейт : 1510 Кбит/сек
Каналы : 6 каналов
Расположение каналов : Front: L C R, Side: L R, LFE
Частота : 48,0 КГц
Битовая глубина : 24 бит
Метод сжатия : С потерями
Задержка видео : 11 мс.
Размер потока : 1,60 Гбайт (13%)
Заголовок : Оригинал, Английский (DTS, 1510 Кбит/с)
Язык : English
Default : Нет
Forced : Нет
Текст #1
Идентификатор : 8
Формат : UTF-8
Идентификатор кодека : S_TEXT/UTF8
Идентификатор кодека/Информация : UTF-8 Plain Text
Заголовок : Киномания
Язык : Russian
Default : Нет
Forced : Нет
Текст #2
Идентификатор : 9
Формат : UTF-8
Идентификатор кодека : S_TEXT/UTF8
Идентификатор кодека/Информация : UTF-8 Plain Text
Заголовок : REN (с матом)
Язык : Russian
Default : Нет
Forced : Нет
Текст #3
Идентификатор : 10
Формат : UTF-8
Идентификатор кодека : S_TEXT/UTF8
Идентификатор кодека/Информация : UTF-8 Plain Text
Заголовок : R5
Язык : Russian
Default : Нет
Forced : Нет
Текст #4
Идентификатор : 11
Формат : UTF-8
Идентификатор кодека : S_TEXT/UTF8
Идентификатор кодека/Информация : UTF-8 Plain Text
Язык : Ukrainian
Default : Нет
Forced : Нет
Текст #5
Идентификатор : 12
Формат : UTF-8
Идентификатор кодека : S_TEXT/UTF8
Идентификатор кодека/Информация : UTF-8 Plain Text
Язык : English
Default : Нет
Forced : Нет

Награды и премии:

Оскар, 2007 год
Победитель:
-- Лучший фильм
-- Лучший режиссер (Мартин Скорсезе)
-- Лучший адаптированный сценарий
-- Лучший монтаж
Номинации:
-- Лучшая мужская роль второго плана (Марк Уолберг)
Золотой глобус, 2007 год
Победитель:
-- Лучший режиссер (Мартин Скорсезе)
Номинации:
-- Лучший фильм (драма)
-- Лучшая мужская роль (драма) (Леонардо ДиКаприо)
-- Лучшая мужская роль второго плана (Марк Уолберг)
-- Лучшая мужская роль второго плана (Джек Николсон)
-- Лучший сценарий
Британская академия, 2007 год
Номинации:
-- Лучший фильм
-- Лучшая мужская роль (Леонардо ДиКаприо)
-- Лучшая мужская роль второго плана (Джек Николсон)
-- Лучший адаптированный сценарий
-- Лучший монтаж
-- Премия имени Дэвида Лина за достижения в режиссуре (Мартин Скорсезе)
Премия канала «MTV», 2007 год
Победитель:
-- Лучший злодей (Джек Николсон)

Знаете ли вы, что...

-- Изначально съёмки картины должны были пройти в Бостоне, где и развиваются события фильма, но из-за финансовых соображений основная часть съёмок прошла в Нью-Йорке.
-- Изначально роль Квина должен был исполнить Геральд МакСорли, но не смог принять участия в фильме из-за занятости на других проектах.
-- Для того чтобы лучше подготовиться к роли, Мэтт Дэймон некоторое время работал в одном из массачусетских отделений полиции.
-- Изначально Джек Николсон отверг предложение сниматься в данном фильме, но после встречи с Мартином Скорсезе и Леонардо Ди Каприо, он согласился сыграть Фрэнка Костелло. Джек передумал, потому что, по его словам, в последнее время он слишком часто снимался в комедиях, и ему снова захотелось исполнить роль злодея.
-- Том Даффи был техническим консультантом на проекте. Он проработал почти тридцать лет в полиции и занимался организованной преступностью. Том также принимал участие в поимке известного бостонского гангстера Уайти Балгера, образ которого частично лег в основу Фрэнка Костелло (Джек Николсон).
-- Роль Мэделин могла достаться Кэйт Уинслет и Хилари Суонк.
-- Изначально Леонардо Ди Каприо должен был сыграть главную роль в фильме «Ложное искушение» (съёмки которого проходили одновременно со съёмками «Отступников»), но отказался, предпочтя сыграть Билли Костигана в данной картине, и тогда её исполнил Мэтт Деймон, который тоже играет в «Отступниках». Режиссер «Ложного искушения» Роберт Де Ниро отказался от роли Куинана, чтобы сыграть в своем фильме.
-- Фильм открывается «Gimme Shelter», классической мелодией группы «Rolling Stones». В саундтреке к фильму она отсутствует; ее место занимает «Comfortably Numb» в исполнении Роджера Уотерса и Вана Моррисона.
-- Слово «fuck» произносится в картине 237 раз.
Скриншоты:


Время раздачи: Обычно с 19:00 до 00:00

[Цитировать]



Показать сообщения:    

Текущее время: 05-Дек 19:43

Часовой пояс: UTC + 3


Вы не можете начинать темы
Вы не можете отвечать на сообщения
Вы не можете редактировать свои сообщения
Вы не можете удалять свои сообщения
Вы не можете голосовать в опросах
Вы не можете прикреплять файлы к сообщениям
Вы не можете скачивать файлы

!ВНИМАНИЕ!
Сайт не предоставляет электронные версии произведений, а занимается лишь коллекционированием и каталогизацией ссылок, присылаемых и публикуемых на форуме нашими читателями. Если вы являетесь правообладателем какого-либо представленного материала и не желаете, чтобы ссылка на него находилась в нашем каталоге, свяжитесь с нами, и мы незамедлительно удалим ее. Файлы для обмена на трекере предоставлены пользователями сайта, и администрация не несет ответственности за их содержание. Просьба не заливать файлы, защищенные авторскими правами, а также файлы нелегального содержания!