[ Сегодня идет свободное скачивание без начисления Download ]


Статистика раздачи
Скачал: [ 2 ]
 
   
 
Top  
 
 
Заклятие 2 / The Conjuring 2 (2016) BDRip [H.264/1080p-LQ]«The next true story from the case files of Ed and Lorraine Warren»- Производство: США, Канада / Atomic Monster, Evergreen Media, New Line Cinema
Жанр: ужасы, триллер, детектив
Режиссер: Джеймс Ван
Продюсер: Роб Кауэн, Питер Сафран, Джеймс Ван
Актеры: Патрик Уилсон, Вера Фармига, Мэдисон Вульф, Фрэнсис О’Коннор, Лорен Эспозито, Саймон МакБерни, Мария Дойл Кеннеди, Саймон Делани
Описание:
Фильм основан на случае, с которым столкнулись практикующие исследователи паранормальных явлений Эд и Лоррэйн Уоррены. На этот раз вызов будет из северного пригорода Лондона, где семья, состоящая из четырех детей и матери-одиночки, подвергается нападениям потусторонних сил. Супругам предстоит выяснить, какова природа этих явлений, полтергейст ли это, или что-то другое, и главное — почему именно этот дом и именно эта семья.

Рейтинг MPAA: R (лицам до 17 лет обязательно присутствие взрослого)
Дата мировой премьеры: 13 мая 2016
Дата премьеры в России: 16 июня 2016, «Каро-Премьер»

Продолжительность: 02:13:21
Качество: BDRip 1080p-LQ
Перевод: Дублированный (Лицензия BD CEE)
Вид субтитров: Вшитые, отключаемые
Язык субтитров: Русский, Английский
Видео: AVC/H.264, 1920x800, (2.40:1), 6946 kbps, 23,976 fps
Аудио: AC3, 6 ch, 448 kbps - Русский
Аудио: AC3, 6 ch, 640 kbps - Английский

MediaInfo:

Общее
Уникальный идентификатор : 218410681394204327585199022430002561914 (0xA4505DFD5A6619A98EB05B02F887437A)
Полное имя : X:ATorrentThe.Conjuring.2.(2016).BDRip.1080p.(qqss44).mkv
Формат : Matroska
Версия формата : Version 2
Размер файла : 7,51 Гбайт
Продолжительность : 2 ч. 13 м.
Общий поток : 8031 Кбит/сек
Название фильма : The.Conjuring.2.(2016).BDRip.1080p.(qqss44)
Дата кодирования : UTC 2016-09-29 20:53:44
Программа кодирования : mkvmerge v7.9.0 ('Birds') 64bit
Библиотека кодирования : libebml v1.3.1 + libmatroska v1.4.2
Видео
Идентификатор : 1
Формат : AVC
Формат/Информация : Advanced Video Codec
Профиль формата : [url=mailto:High@L4.1]High@L4.1[/url]
Параметр CABAC формата : Да
Параметр ReFrames формата : 5 кадров
Идентификатор кодека : V_MPEG4/ISO/AVC
Продолжительность : 2 ч. 13 м.
Битрейт : 6946 Кбит/сек
Ширина : 1920 пикселей
Высота : 800 пикселей
Соотношение сторон : 2,40:1
Режим частоты кадров : Постоянный
Частота кадров : 23,976 (24000/1001) кадра/сек
Цветовое пространство : YUV
Субдискретизация насыщенности : 4:2:0
Битовая глубина : 8 бит
Тип развёртки : Прогрессивная
Бит/(Пиксели*Кадры) : 0.189
Размер потока : 6,49 Гбайт (86%)
Заголовок : The.Conjuring.2.(2016)
Библиотека кодирования : x264 core 146 r2538 121396c
Настройки программы : cabac=1 / ref=5 / deblock=1:-3:-3 / analyse=0x3:0x133 / me=umh / subme=11 / psy=1 / psy_rd=1.00:0.00 / mixed_ref=1 / me_range=32 / chroma_me=1 / trellis=2 / 8x8dct=1 / cqm=0 / deadzone=21,11 / fast_pskip=0 / chroma_qp_offset=-2 / threads=12 / lookahead_threads=3 / sliced_threads=0 / nr=0 / decimate=0 / interlaced=0 / bluray_compat=0 / constrained_intra=0 / bframes=10 / b_pyramid=2 / b_adapt=2 / b_bias=0 / direct=3 / weightb=1 / open_gop=0 / weightp=2 / keyint=240 / keyint_min=23 / scenecut=40 / intra_refresh=0 / rc=2pass / mbtree=0 / bitrate=6946 / ratetol=1.0 / qcomp=0.60 / qpmin=0 / qpmax=69 / qpstep=4 / cplxblur=20.0 / qblur=0.5 / ip_ratio=1.40 / pb_ratio=1.30 / aq=1:1.00
Язык : English
Default : Да
Forced : Нет
Аудио #1
Идентификатор : 2
Формат : AC-3
Формат/Информация : Audio Coding 3
Расширение режима : CM (complete main)
Параметр Endianness формата : Big
Идентификатор кодека : A_AC3
Продолжительность : 2 ч. 13 м.
Вид битрейта : Постоянный
Битрейт : 448 Кбит/сек
Каналы : 6 каналов
Расположение каналов : Front: L C R, Side: L R, LFE
Частота : 48,0 КГц
Частота кадров : 31,250 кадров/сек (1536 spf)
Метод сжатия : С потерями
Размер потока : 429 Мбайт (6%)
Заголовок : DUB | DD5.1 @ 448 kbps
Default : Да
Forced : Нет
Аудио #2
Идентификатор : 3
Формат : AC-3
Формат/Информация : Audio Coding 3
Расширение режима : CM (complete main)
Параметр Endianness формата : Big
Идентификатор кодека : A_AC3
Продолжительность : 2 ч. 13 м.
Вид битрейта : Постоянный
Битрейт : 640 Кбит/сек
Каналы : 6 каналов
Расположение каналов : Front: L C R, Side: L R, LFE
Частота : 48,0 КГц
Частота кадров : 31,250 кадров/сек (1536 spf)
Метод сжатия : С потерями
Размер потока : 613 Мбайт (8%)
Заголовок : Original | DD5.1 @ 640 kbps
Язык : English
Default : Нет
Forced : Нет
Текст #1
Идентификатор : 4
Формат : UTF-8
Идентификатор кодека : S_TEXT/UTF8
Идентификатор кодека/Информация : UTF-8 Plain Text
Продолжительность : 2 ч. 8 м.
Битрейт : 4 бит/сек
Count of elements : 84
Размер потока : 4,21 Кбайт (0%)
Заголовок : Forced
Язык : Russian
Default : Да
Forced : Нет
Текст #2
Идентификатор : 5
Формат : UTF-8
Идентификатор кодека : S_TEXT/UTF8
Идентификатор кодека/Информация : UTF-8 Plain Text
Продолжительность : 2 ч. 13 м.
Битрейт : 59 бит/сек
Count of elements : 1378
Размер потока : 58,3 Кбайт (0%)
Заголовок : Full
Язык : Russian
Default : Нет
Forced : Нет
Текст #3
Идентификатор : 6
Формат : UTF-8
Идентификатор кодека : S_TEXT/UTF8
Идентификатор кодека/Информация : UTF-8 Plain Text
Продолжительность : 2 ч. 6 м.
Битрейт : 40 бит/сек
Count of elements : 1302
Размер потока : 37,4 Кбайт (0%)
Заголовок : Full
Язык : English
Default : Нет
Forced : Нет
Меню
00:00:00.000 : en:Chapter 01
00:08:24.545 : en:Chapter 02
00:18:40.452 : en:Chapter 03
00:28:34.170 : en:Chapter 04
00:40:01.065 : en:Chapter 05
00:48:46.840 : en:Chapter 06
01:02:14.313 : en:Chapter 07
01:09:29.665 : en:Chapter 08
01:21:55.619 : en:Chapter 09
01:29:26.486 : en:Chapter 10
01:38:53.469 : en:Chapter 11
01:48:15.363 : en:Chapter 12
02:03:10.508 : en:Chapter 13
02:07:36.690 : en:Chapter 14
Скриншоты:

[Цитировать]



Показать сообщения:    

Текущее время: 11-Дек 07:17

Часовой пояс: UTC + 3


Вы не можете начинать темы
Вы не можете отвечать на сообщения
Вы не можете редактировать свои сообщения
Вы не можете удалять свои сообщения
Вы не можете голосовать в опросах
Вы не можете прикреплять файлы к сообщениям
Вы не можете скачивать файлы

!ВНИМАНИЕ!
Сайт не предоставляет электронные версии произведений, а занимается лишь коллекционированием и каталогизацией ссылок, присылаемых и публикуемых на форуме нашими читателями. Если вы являетесь правообладателем какого-либо представленного материала и не желаете, чтобы ссылка на него находилась в нашем каталоге, свяжитесь с нами, и мы незамедлительно удалим ее. Файлы для обмена на трекере предоставлены пользователями сайта, и администрация не несет ответственности за их содержание. Просьба не заливать файлы, защищенные авторскими правами, а также файлы нелегального содержания!