[ Сегодня идет свободное скачивание без начисления Download ]


Статистика раздачи
Нет
 
   
 
Top  
 
 
-Мой путь / Mai wei / My Way (2011) [720p] BDRip -«In a world at war, my enemy is my salvation.» - Русское название: Мой путь
Оригинальное название: Mai wei / My Way
Выпущено: Южная Корея
Год выпуска: 2011
Жанр: Военный, Драма
Режиссер: Кан Чже Гю
Актеры: Дон Гон Чан, Фан Бинбин, Ким Ин Гвон, Ким Хи Вон, О Тхэ Гён, Гвак Чжон Ук, Ким Щи Ху0, Юн Хи Вон, Таро Ямомото, Манабу Хамада, Шинго Цуруми, Чжо Мин А, Ким Ин У, Измаил Дениз, Су Ро Ким
Описание фильма:
«Шел 1938 год. Время японского колониального правления в Корее... Чжун Щик мечтал принять участие в олимпийском марафоне, а Тацуо был лучшим бегуном Японии. Все изменил один день. Чжун Щик был призван служить в японскую армию, где как по велению судьбы он встречает Тацуо, который в то время уже был там командующим. Вдвоем они оказались участниками Второй мировой войны и носили форму Японии, СССР и даже Германии, прежде чем наконец дошли до Франции. Кореец и японец, будучи когда-то врагами, стали надеждой друг для друга. Это фильм о настоящей человечности, которая стирает границы и различия между национальностями.
Продолжительность: 02:23:08
Перевод:Одноголосый закадровый
- -Качество видео: BDRip
Видеокодек: MPEG-4 AVC Video
Аудиокодек: AC-3
Bидео: 1280x544 at 23.976 fps, ~7200 kb/s
Аудио# 1: Русский: AC-3, 3/2 ch, ~ 448 kb/s |Одноголосый, Ю.Сербин|
Аудио# 2: Английский: AC-3, 3/2 ch, ~ 448 kb/s

Субтитры:Английские-

Знаете ли вы, что...

Идея фильма появилась благодаря фотографии времен Второй мировой войны, на которой запечатлен корейский солдат в униформе немецкой армии. Фотография была сделана в 1944 году в Нормандии. В фильме будет показана Вторая мировая война с азиатской точки зрения и напряженные отношения между Кореей и Японией.

MediaInfo:

Формат : Matroska
Версия формата : Version 2
Размер файла : 8,08 Гбайт
Продолжительность : 2 ч. 23 м.
Общий поток : 8082 Кбит/сек
Дата кодирования : UTC 2013-01-06 20:22:20
Программа кодирования : mkvmerge v5.6.0 ('Kenya Kane') built on May 27 2012 16:44:04
Библиотека кодирования : libebml v1.2.3 + libmatroska v1.3.0
Видео
Идентификатор : 1
Формат : AVC
Формат/Информация : Advanced Video Codec
Профиль формата : [email protected]
Параметр CABAC формата : Да
Параметр ReFrames формата : 12 кадров
Идентификатор кодека : V_MPEG4/ISO/AVC
Продолжительность : 2 ч. 23 м.
Битрейт : 7200 Кбит/сек
Ширина : 1280 пикселей
Высота : 544 пикселя
Соотношение сторон : 2,35:1
Режим частоты кадров : Постоянный
Частота кадров : 23,976 кадра/сек
Цветовое пространство : YUV
Субдискретизация насыщенности : 4:2:0
Битовая глубина : 8 бит
Тип развёртки : Прогрессивная
Бит/(Пиксели*Кадры) : 0.431
Размер потока : 7,02 Гбайт (87%)
Библиотека кодирования : x264 core 124 r2197 69a0443
Настройки программы : cabac=1 / ref=12 / deblock=1:-3:-3 / analyse=0x3:0x133 / me=umh / subme=10 / psy=1 / psy_rd=1.10:0.05 / mixed_ref=1 / me_range=32 / chroma_me=1 / trellis=2 / 8x8dct=1 / cqm=0 / deadzone=21,11 / fast_pskip=0 / chroma_qp_offset=-6 / threads=16 / sliced_threads=0 / nr=0 / decimate=0 / interlaced=0 / bluray_compat=0 / constrained_intra=0 / bframes=8 / b_pyramid=2 / b_adapt=2 / b_bias=0 / direct=3 / weightb=1 / open_gop=0 / weightp=2 / keyint=240 / keyint_min=23 / scenecut=40 / intra_refresh=0 / rc_lookahead=120 / rc=2pass / mbtree=1 / bitrate=7200 / ratetol=1.0 / qcomp=0.70 / qpmin=10 / qpmax=51 / qpstep=4 / cplxblur=20.0 / qblur=0.5 / vbv_maxrate=30000 / vbv_bufsize=30000 / nal_hrd=none / ip_ratio=1.25 / aq=1:0.95
Язык : English
Default : Да
Forced : Нет
Аудио #1
Идентификатор : 2
Формат : AC-3
Формат/Информация : Audio Coding 3
Расширение режима : CM (complete main)
Параметр Endianness формата : Big
Идентификатор кодека : A_AC3
Продолжительность : 2 ч. 23 м.
Вид битрейта : Постоянный
Битрейт : 448 Кбит/сек
Каналы : 6 каналов
Расположение каналов : Front: L C R, Side: L R, LFE
Частота : 48,0 КГц
Битовая глубина : 16 бит
Метод сжатия : С потерями
Размер потока : 459 Мбайт (6%)
Default : Да
Forced : Нет
Аудио #2
Идентификатор : 3
Формат : AC-3
Формат/Информация : Audio Coding 3
Расширение режима : CM (complete main)
Параметр Endianness формата : Big
Идентификатор кодека : A_AC3
Продолжительность : 2 ч. 23 м.
Вид битрейта : Постоянный
Битрейт : 448 Кбит/сек
Каналы : 6 каналов
Расположение каналов : Front: L C R, Side: L R, LFE
Частота : 48,0 КГц
Битовая глубина : 16 бит
Метод сжатия : С потерями
Размер потока : 459 Мбайт (6%)
Default : Нет
Forced : Нет
Текст
Идентификатор : 4
Формат : UTF-8
Идентификатор кодека : S_TEXT/UTF8
Идентификатор кодека/Информация : UTF-8 Plain Text
Default : Да
Forced : Нет
Меню
00:00:00.000 : en:00:00:00.000
00:09:22.979 : en:00:09:22.979
00:16:58.100 : en:00:16:58.100
00:21:59.443 : en:00:21:59.443
00:28:51.271 : en:00:28:51.271
00:34:28.108 : en:00:34:28.108
00:41:31.406 : en:00:41:31.406
00:48:52.096 : en:00:48:52.096
00:54:51.079 : en:00:54:51.079
01:03:27.595 : en:01:03:27.595
01:10:20.049 : en:01:10:20.049
01:17:54.628 : en:01:17:54.628
01:24:17.761 : en:01:24:17.761
01:32:55.653 : en:01:32:55.653
01:41:56.569 : en:01:41:56.569
01:49:57.466 : en:01:49:57.466
01:58:07.205 : en:01:58:07.205
02:06:19.947 : en:02:06:19.947
02:18:11.909 : en:02:18:11.909
Скриншоты:


Время раздачи: До первых 10 скачавших

[Цитировать]



Показать сообщения:    

Текущее время: 06-Дек 08:42

Часовой пояс: UTC + 3


Вы не можете начинать темы
Вы не можете отвечать на сообщения
Вы не можете редактировать свои сообщения
Вы не можете удалять свои сообщения
Вы не можете голосовать в опросах
Вы не можете прикреплять файлы к сообщениям
Вы не можете скачивать файлы

!ВНИМАНИЕ!
Сайт не предоставляет электронные версии произведений, а занимается лишь коллекционированием и каталогизацией ссылок, присылаемых и публикуемых на форуме нашими читателями. Если вы являетесь правообладателем какого-либо представленного материала и не желаете, чтобы ссылка на него находилась в нашем каталоге, свяжитесь с нами, и мы незамедлительно удалим ее. Файлы для обмена на трекере предоставлены пользователями сайта, и администрация не несет ответственности за их содержание. Просьба не заливать файлы, защищенные авторскими правами, а также файлы нелегального содержания!