[ Сегодня идет свободное скачивание без начисления Download ]


Статистика раздачи
Нет
 
   
 
 
 
-Как жениться и остаться холостым / Prete-moi ta main (2006) [1080p] BDRip- Русское название: Как жениться и остаться холостым
Оригинальное название: Prete-moi ta main
Год выпуска: 2006
Жанр: Мелодрама, Комедия
Описание фильма:
Жизнь легка для 43-летнего и холостого Луи, взлелеянного матерью и пятью сестрами. Его счастье могло бы длиться всю жизнь, если бы его не решили наконец-то женить! И тогда хитрый Луи придумывает уловку…
Режиссер: Эрик Лартиго
Актеры: Ален Шаба, Шарлотта Гензбур, Бернадетт Лафон, Владимир Йорданофф, Грегуар Остерманн, Вероник Барро, Мари-Армелль Деги, Катя Левкович, Луиз Моно, Люк Муше, Кристиан Милле, Аисса Майга, Татьяна Гусефф, Аликс Де Конопка
Продолжительность: 01:28:57
Перевод: Дублированный
Язык субтитров: Русский
Вид субтитров: Вшитые (Отключаемые)

Дата мировой премьеры: 1 ноября 2006
Дата российской премьеры: 14 февраля 2007
Дата выхода DVD релиза: 10 мая 2007, «West Video»
Видеокодек: MPEG-4 AVC/H.264
Битрейт видео: ~9048 Кбит/сек
Размер кадра: 1920 x 1040
Качество видео: BDRip 1080p
Аудио 1: DTS at 755 Кбит/сек, 6 каналов, 48,0 КГц - профессиональный (дубляж)
Аудио 2: DTS at 1509 Кбит/сек, 6 каналов, 48,0 КГц - оригинал (французский)

MI

Общее
Уникальный идентификатор : 191984905860565170013160953188295997850 (0x906EF2AA03D5A66CAE6A4023B92D799A)
Полное имя : D:\HD\Как жениться и остаться холостым (2006)\Prete-moi ta main\fhd-prete1080p.mkv
Формат : Matroska
Версия формата : Version 2
Размер файла : 7,03 Гбайт
Продолжительность : 1 ч. 28 м.
Общий поток : 11,3 Мбит/сек
Название фильма : Prete-moi ta main
Дата кодирования : UTC 2013-01-06 05:18:14
Программа кодирования : mkvmerge v3.4.0 ('Rapunzel') сборка от May 15 2010 09:38:20
Библиотека кодирования : libebml v0.8.0 + libmatroska v0.9.0
Видео
Идентификатор : 1
Формат : AVC
Формат/Информация : Advanced Video Codec
Профиль формата : [email protected]
Параметр CABAC формата : Да
Параметр ReFrames формата : 4 кадра
Идентификатор кодека : V_MPEG4/ISO/AVC
Продолжительность : 1 ч. 28 м.
Битрейт : 9048 Кбит/сек
Ширина : 1920 пикселей
Высота : 1040 пикселей
Соотношение сторон : 1,85:1
Режим частоты кадров : Постоянный
Частота кадров : 23,976 кадра/сек
Цветовое пространство : YUV
Субдискретизация насыщенности : 4:2:0
Битовая глубина : 8 бит
Тип развёртки : Прогрессивная
Бит/(Пиксели*Кадры) : 0.189
Размер потока : 5,48 Гбайт (78%)
Заголовок : Video
Библиотека кодирования : x264 core 66 r1093M 1df50b9
Настройки программы : cabac=1 / ref=4 / deblock=1:0:0 / analyse=0x3:0x2 / me=umh / subme=7 / psy_rd=1.0:0.0 / mixed_ref=1 / me_range=16 / chroma_me=1 / trellis=1 / 8x8dct=1 / cqm=0 / deadzone=21,11 / chroma_qp_offset=-2 / threads=6 / nr=0 / decimate=1 / mbaff=0 / bframes=3 / b_pyramid=1 / b_adapt=1 / b_bias=0 / direct=1 / wpredb=1 / keyint=250 / keyint_min=25 / scenecut=40(pre) / rc=2pass / bitrate=9048 / ratetol=1.0 / qcomp=0.60 / qpmin=10 / qpmax=51 / qpstep=4 / cplxblur=20.0 / qblur=0.5 / ip_ratio=1.40 / pb_ratio=1.30 / aq=1:1.00
Язык : French
Default : Да
Forced : Нет
Аудио #1
Идентификатор : 2
Формат : DTS
Формат/Информация : Digital Theater Systems
Режим : 16
Параметр Endianness формата : Big
Идентификатор кодека : A_DTS
Продолжительность : 1 ч. 28 м.
Вид битрейта : Постоянный
Битрейт : 755 Кбит/сек
Каналы : 6 каналов
Расположение каналов : Front: L C R, Side: L R, LFE
Частота : 48,0 КГц
Битовая глубина : 24 бит
Метод сжатия : С потерями
Размер потока : 480 Мбайт (7%)
Язык : Russian
Default : Да
Forced : Нет
Аудио #2
Идентификатор : 3
Формат : DTS
Формат/Информация : Digital Theater Systems
Режим : 16
Параметр Endianness формата : Big
Идентификатор кодека : A_DTS
Продолжительность : 1 ч. 28 м.
Вид битрейта : Постоянный
Битрейт : 1509 Кбит/сек
Каналы : 6 каналов
Расположение каналов : Front: L C R, Side: L R, LFE
Частота : 48,0 КГц
Битовая глубина : 16 бит
Метод сжатия : С потерями
Размер потока : 960 Мбайт (13%)
Язык : French
Default : Нет
Forced : Нет
Текст
Идентификатор : 4
Формат : UTF-8
Идентификатор кодека : S_TEXT/UTF8
Идентификатор кодека/Информация : UTF-8 Plain Text
Язык : Russian
Default : Да
Forced : Нет
Скриншоты:



Время раздачи: 24/7 - по возможности

[Цитировать]



Показать сообщения:    

Текущее время: 06-Дек 19:05

Часовой пояс: UTC + 3


Вы не можете начинать темы
Вы не можете отвечать на сообщения
Вы не можете редактировать свои сообщения
Вы не можете удалять свои сообщения
Вы не можете голосовать в опросах
Вы не можете прикреплять файлы к сообщениям
Вы не можете скачивать файлы

!ВНИМАНИЕ!
Сайт не предоставляет электронные версии произведений, а занимается лишь коллекционированием и каталогизацией ссылок, присылаемых и публикуемых на форуме нашими читателями. Если вы являетесь правообладателем какого-либо представленного материала и не желаете, чтобы ссылка на него находилась в нашем каталоге, свяжитесь с нами, и мы незамедлительно удалим ее. Файлы для обмена на трекере предоставлены пользователями сайта, и администрация не несет ответственности за их содержание. Просьба не заливать файлы, защищенные авторскими правами, а также файлы нелегального содержания!